Impact Wrestling Turning Point 2020 720P Free Online

Watch Impact Wrestling Turning Point 2020 720P Free Online DX-TV

Impact Wrestling Turning Point 2020

 

 Turning Point 2020 Free

 

Impact Wrestling Turning Point 2020 720P Free Online

 

Complete name : IMPACT Wrestling Turning Point 2020 720p WEB H264 DX-TV.mp4
Format : Matroska
Format version : Version 4
File size : 2.43 GiB
Duration : 2 h 39 min
Overall bit rate : 2 191 kb/s

Wrestling Turning Point 2020

Video
ID : 2
Format : AVC
Duration : 2 h 39 min
Bit rate : 1 997 kb/s
Width : 1 280 pixels
Height : 720 pixels
Display aspect ratio : 16:9
Frame rate mode : Constant
Frame rate : 30.000 FPS
Color space : YUV
Chroma sampling : 4:2:0
Bit depth : 8 bits
Scan type : Progressive
Bits/(Pixel*Frame) : 0.072
Stream size : 2.22 GiB
Default : Yes
Forced : No
Color range : Limited
Color primaries : BT.709
Transfer characteristics : BT.709
Matrix coefficients : BT.709

Impact Wrestling Turning Point 2020

Audio
ID : 1
Format : AAC LC
Format/Info : Advanced Audio
Codec ID : A_AAC-2
Duration : 2 h 39 min
Bit rate : 192 kb/s
Channel(s) : 2 channels
Channel layout : L R
Sampling rate : 48.0 kHz
Frame rate : 46.875 FPS
Compression mode : Lossy
Stream size : 218 MiB
Default : Yes
Forced : No

Wrestling Turning Point 2020

Su Yung shocked the world when she answered Deonna Purrazzo‘s open challenge at Bound For Glory.

and became the new Knockouts Champion in the process.

After Purrazzo sought legal action in the form of Barrister RD Evans.

Executive Vice President Scott D’amore awarded The Virtuosa her rematch on IMPACT!

However, it was Kimber Lee who introduced a steel chair into the match.

leading to Su Yung getting disqualified after she used it as a weapon.

This time around, D’amore was one step ahead of the Barrister .

as he announced a rematch for Turning Point on IMPACT Plus.

But this time, it will be contested under No Disqualification rules.

 

Impact Wrestling Turning Point 2020 720P Free Online

 

Watch online

 

 

Server 1

 

 

 

 

 

 

 

 

Server-2

Wrestling Turning Point 2020

 

 

 

 

 

Uploaded By Site DX-TV.com

 

 

 

 

Download Free Links with normal and high Speed [ more 14 hosts ]  

 

[su_expand more_text=”Show Hosts Info” less_text=”Close all Info” height=”30″ text_color=”#000000″ link_color=”#e25f8b” link_style=”button” more_icon=”icon: arrow-down” less_icon=”icon: arrow-up”]

 

 Wrestling Turning Point 2020

hexupload.net – clicknupload.co – www.multiup.org

– uptobox.com – anonfiles.com – userscloud.com –

dropapk.to alfafile.net – ddownload.com – rockfile.co

– 1fichier.com – filedown.org – katfile.com – filerio.in

 

 

[/su_expand]

 

 

http://shrt10.com/QdSZay
http://shrt10.com/DKTRIxfk
http://shrt10.com/2VWugrjgm
http://shrt10.com/H5B64zhr
http://shrt10.com/RFxoQOq
http://shrt10.com/Y67sUR

 

 

 

Download Links with premium High Speed   

 

 

 

 

dropapk.to

 

 

 

nitroflare.com

 

 

 

rapidgator.net

 

 

 

uploaded.net

 

 

 

uploadgig.com

 

 

 

 

 

dx-tv.com

 

urlfree.net

Leave a Reply

Your email address will not be published. Required fields are marked *

This site uses Akismet to reduce spam. Learn how your comment data is processed.