Watch Wrestling Turning Point 2020 1080P Full Show Free

Wrestling Turning Point 2020 1080P Full Show Free DX-TV

Impact Wrestling Turning Point 2020

 

 Turning Point 2020 Free

 

Watch Wrestling Turning Point 2020 1080P Full Show Free

 

 

Complete name : IMPACT Wrestling Turning Point 2020 1080p WEB H264 DX-TV.mp4
Format : Matroska
Format version : Version 4
File size : 4.09 GiB
Duration : 2 h 39 min
Overall bit rate : 3 684 kb/s

Impact Wrestling Turning Point 2020

Video
ID : 2
Format : AVC
Duration : 2 h 39 min
Bit rate : 3 490 kb/s
Width : 1 920 pixels
Height : 1 080 pixels
Display aspect ratio : 16:9
Frame rate mode : Constant
Frame rate : 30.000 FPS
Color space : YUV
Chroma subsampling : 4:2:0
Bit depth : 8 bits
Scan type : Progressive
Bits/(Pixel*Frame) : 0.056
Stream size : 3.88 GiB
Default : Yes
Forced : No
Color range : Limited
Color primaries : BT.709
Transfer characteristics : BT.709
Matrix coefficients : BT.709

Impact Wrestling Turning Point 2020

Audio
ID : 1
Format : AAC LC
Format/Info : Advanced Audio
Codec ID : A_AAC-2
Duration : 2 h 39 min
Bit rate : 192 kb/s
Channel(s) : 2 channels
Channel layout : L R
Sampling rate : 48.0 kHz
Frame rate : 46.875 FPS
Compression mode : Lossy
Stream size : 218 MiB
Default : Yes
Forced : No

Impact Wrestling Turning Point 2020

At Bound For Glory, Daivari made his shocking return in the Call Your Shot Gauntlet.

Now the former X-Division Champion is set to collide with a determined and focused Eddie Edwards.

Just days after Eddie was laid out by Sami Callihan, Ken Shamrock and Chris Bey on IMPACT!

will the Boston native be at 100% this Saturday at Turning Point?

Impact Wrestling Turning Point 2020

Chris Sabin and James Storm will fight side-by-side this Saturday at Turning Point! Recently on IMPACT!

XXXL made a violent statement when they brutally attacked the Motor City Machine Guns.

doing more damage to an already injured Alex Shelley.

While Shelley takes time away from the ring to recover, Chris Sabin has enlisted the help of one of his greatest rivals of all time.

“Cowboy” James Storm. What will happen when this team of TNA veterans bands together.

against one of the most powerful tag teams in IMPACT history, Larry D and Acey Romero?

 

 

Watch Wrestling Turning Point 2020 1080P Full Show Free

 

Watch online

 

 

Server 1

 

 

 

 

 

 

 

 

Server-2

 

Impact Wrestling Turning Point 2020

 

 

 

 

 

Uploaded By Site DX-TV.com

 

 

 

 

Download Free Links with normal and high Speed [ more 14 hosts ]  

 

 

 

Http://shrt10.com/iByiHIDvW
http://shrt10.com/IEodPHPY
http://shrt10.com/nGzZH
http://shrt10.com/ijkO3yi
http://shrt10.com/tQCOp
http://shrt10.com/8Gz6UZ

 

 

 

 

Download Links with premium High Speed   

 

 

 

 

dropapk.to

 

 

 

nitroflare.com

 

 

 

rapidgator.net

 

 

 

uploaded.net

 

 

 

uploadgig.com

 

 

 

dx-tv.com

 

urlfree.net

Leave a Reply

Your email address will not be published. Required fields are marked *

This site uses Akismet to reduce spam. Learn how your comment data is processed.