Download UFC Fight Night 183 Felder vs Dos Anjos 1080p

UFC Fight Night 183 Felder vs Dos Anjos 1080p DX-TV

UFC Fight Night 183 Felder vs Dos Anjos

 

 UFC Fight Night 183 Felder vs Dos Anjos
 

 

Download UFC Fight Night 183 Felder vs Dos Anjos 1080p

 

 

Complete name : UFC.Fight.Night.183.Felder.vs.Dos.Anjos.1080p.mp4
Format : MPEG-4
Format profile : Base Media
Codec ID : isom
File size : 8.64 GiB
Duration : 3 h 29 min
Overall bit rate mode : Variable
Overall bit rate : 5 916 kb/s
Writing application : Lavf58.12.100

UFC Fight Night 183 Felder vs Dos Anjos

Video
ID : 2
Format : AVC
Duration : 3 h 29 min
Bit rate mode : Variable
Bit rate : 5 774 kb/s
Maximum bit rate : 8 864 kb/s
Width : 1 920 pixels
Height : 1 080 pixels
Display aspect ratio : 16:9
Frame rate mode : Variable
Frame rate : 30.000 FPS
Minimum frame rate : 29.412 FPS
Maximum frame rate : 30.303 FPS
Color space : YUV
Chroma subsampling : 4:2:0
Bit depth : 8 bits
Scan type : Progressive
Bits/(Pixel*Frame) : 0.093
Stream size : 8.43 GiB (98%)
Codec configuration box : avc

UFC Fight Night 183 Felder vs Dos Anjos

Audio
ID : 3
Format : AAC LC
Format/Info : Advanced Audio
Codec ID : mp4a-40-2
Duration : 3 h 29 min
Bit rate mode : Constant
Bit rate : 132 kb/s
Channel(s) : 2 channels
Channel layout : L R
Sampling rate : 48.0 kHz
Frame rate : 46.875 FPS (1024 SPF)
Compression mode : Lossy
Stream size : 197 MiB (2%)
Default : Yes
Alternate group : 1

UFC Fight Night 183 Felder vs Dos Anjos

UFC FIGHT NIGHT: FELDER VS. DOS ANJOS FIGHT CARD

MAIN CARD

  • Paul Felder vs. Rafael dos Anjos; Lightweight 
  • Abdul Razak Alhassan vs. Khaos Williams; Welterweight 
  • Julian Marquez vs. Saparbek Safarov; Middleweight 
  • Eryk Anders vs. Antônio Arroyo; Middleweight 
  • Brendan Allen vs. Sean Strickland; Catchweight (195 lb) 

UFC Fight Night 183 Felder vs Dos Anjos

PRELIMINARY CARD

  • Kay Hansen vs. Cory McKenna; Women’s Strawweight 
  • Ashley Yoder vs. Miranda Granger; Women’s Strawweight 
  • Alex Morono vs. Rhys McKee; Welterweight 
  • José Alberto Quiñónez vs. Louis Smolka; Bantamweight 
  • Randa Markos vs. Kanako Murata; Women’s Strawweight 
  • Geraldo de Freitas vs. Tony Gravely; Bantamweight 
  • Don’Tale Mayes vs. Roque Martinez; Heavyweight 

 

Download UFC Fight Night 183 Felder vs Dos Anjos 1080p

 

Watch online

 

 

Server 1

 

 

 

 

 

 

 

 

Server-2

 

UFC Fight Night 183 Felder vs Dos Anjos

 

 

 

 

 

Uploaded By Site DX-TV.com

 

 

Download Links with premium High Speed   

 

 

 

nitroflare.com

 

 

 

rapidgator.net

 

 

 

 

 

dx-tv.com

 

urlfree.net

Leave a Reply

Your email address will not be published. Required fields are marked *

This site uses Akismet to reduce spam. Learn how your comment data is processed.