Free WWE NXT UK 11/07/2019 1080p

Free WWE NXT UK 11/07/2019 1080p DX-TV

 

 

WWE NXT UK

 

 

 

 

dx-tv.com

 

 

 

 

Free WWE NXT UK 11/07/2019 1080p

 

 

 

Complete name : WWE.NXT.UK.2019.11.07.1080p.WEB.h264-HEEL.mp4
Format : MPEG-4
Format profile : Base Media
File size : 2.02 GiB
Duration : 50 min 0 s
Overall bit rate mode : Variable
Overall bit rate : 5 794 kb/s
Writing application : Lavf58.32.104

Video
ID : 1
Format : AVC
Duration : 50 min 0 s
Bit rate : 5 658 kb/s
Width : 1 920 pixels
Height : 1 080 pixels
Display aspect ratio : 16:9
Frame rate mode : Variable
Frame rate : 30.000 FPS
Minimum frame rate : 29.412 FPS
Maximum frame rate : 30.303 FPS
Color space : YUV
Chroma subsampling : 4:2:0
Bit depth : 8 bits
Scan type : Progressive
Bits/(Pixel*Frame) : 0.091
Stream size : 1.98 GiB (98%)
Codec configuration box : avcC

Audio
ID : 2
Format : AAC LC
Codec ID : mp4a-40-2
Duration : 50 min 0 s
Bit rate mode : Variable
Bit rate : 125 kb/s
Maximum bit rate : 128 kb/s
Channel(s) : 2 channels
Channel layout : L R
Sampling rate : 48.0 kHz
Frame rate : 46.875 FPS (1024 SPF)
Compression mode : Lossy
Stream size : 44.9 MiB (2%)
Default : Yes
Alternate group : 1

 

 

 

 

 

Watch online

 

 

Waiting finish converting video

 

 

Server 1

 

 

 

 

 

 

 

 

 

 

 

 

 

Server 2

 

 

 

 

 

 

 

 

 

 

 

 

 

 

 

Uploaded By Site DX-TV.com

 

 

 

 

 

Free WWE NXT UK 11/07/2019 1080p

 

 

 

 

 

 

Recommended For Free

 

 

 

 

earn4files.com

 

 

 

 

clicknupload.org

 

 

 

 

 

Download with high speed with Premium account

 

 

 

 

nitroflare.com

 

 

 

rapidgator.net

 

 

 

uploaded.net

 

 

 

 

 

 

 

 

 

Leave a Reply

Your email address will not be published. Required fields are marked *

5 × two =