Watch WWE NXT UK 2019 11 07

Watch WWE NXT UK 2019 11 07 DX-TV

 

 

WWE NXT UK

 

 

 

 

dx-tv.com

 

 

 

 

Watch WWE NXT UK 2019 11 07

 

 

 

 

 

Complete name : WWE.NXT.UK.2019.11.07.WEB.h264-HEEL.mp4
Format : MPEG-4
Format profile : Base Media
Codec ID : isom
File size : 604 MiB
Duration : 50 min 0 s
Overall bit rate mode : Variable
Overall bit rate : 1 690 kb/s
Writing application : Lavf58.32.104

Video
ID : 1
Format : AVC
Format/Info : Advanced Video Codec
Codec ID : avc1
Codec ID/Info : Advanced Video Coding
Duration : 50 min 0 s
Bit rate mode : Variable
Bit rate : 1 556 kb/s
Maximum bit rate : 1 663 kb/s
Width : 896 pixels
Height : 504 pixels
Display aspect ratio : 16:9
Frame rate mode : Variable
Frame rate : 30.000 FPS
Minimum frame rate : 29.412 FPS
Maximum frame rate : 30.303 FPS
Standard : NTSC
Color space : YUV
Chroma subsampling : 4:2:0
Bit depth : 8 bits
Scan type : Progressive
Bits/(Pixel*Frame) : 0.115
Stream size : 557 MiB (92%)
Color range : Limited
Color primaries : BT.709
Transfer characteristics : BT.709
Matrix coefficients : BT.709
Codec configuration box : avcC

Audio
ID : 2
Format : AAC LC
Format/Info : Advanced Audio Codec Low Complexity
Codec ID : mp4a-40-2
Duration : 50 min 0 s
Bit rate mode : Variable
Bit rate : 125 kb/s
Maximum bit rate : 128 kb/s
Channel(s) : 2 channels
Channel layout : L R
Sampling rate : 48.0 kHz
Frame rate : 46.875 FPS (1024 SPF)
Compression mode : Lossy
Stream size : 44.9 MiB (7%)
Default : Yes
Alternate group : 1

 

 

 

 

 

 

Watch online

 

 

Waiting finish converting video

 

 

Server 1

 

 

 

 

 

 

 

 

 

 

 

 

 

Server 2

 

 

 

 

 

 

 

 

 

 

 

 

 

 

 

Uploaded By Site DX-TV.com

 

 

 

 

 

Watch WWE NXT UK 2019 11 07

 

 

 

 

 

 

Recommended For Free

 

 

 

 

earn4files.com

 

 

clicknupload.org

 

 

 

 

 

Download with high speed with Premium account

 

 

 

 

nitroflare.com

 

 

 

rapidgator.net

 

 

 

uploaded.net

 

 

 

 

 

 

 

 

 

Leave a Reply

Your email address will not be published. Required fields are marked *

one × 2 =