Watch Progress Wrestling 2019 Chapter 97 720p

Watch Progress Wrestling 2019 10 27 Chapter 97 720p DX-TV

 

 

Progress Wrestling 97

 

 

 

 

dx-tv.com

 

 

 

 

Watch Progress Wrestling 2019 Chapter 97 720p

 

 

 

 

 

Complete name : PROGRESS.Wrestling.2019.10.27.Chapter.97.720p.WEB.h264-iNDYHEEL.mp4
Format : MPEG-4
Format profile : Base Media
Codec ID : isom
File size : 2.59 GiB
Duration : 2 h 46 min
Overall bit rate : 2 223 kb/s
Writing application : Lavf58.32.104

Video
ID : 1
Format : AVC
Format/Info : Advanced Video Codec
Codec ID : avc1
Codec ID/Info : Advanced Video Coding
Duration : 2 h 46 min
Duration_FirstFrame : -40 ms
Bit rate : 2 089 kb/s
Width : 1 280 pixels
Height : 720 pixels
Display aspect ratio : 16:9
Frame rate mode : Variable
Frame rate : 25.000 FPS
Minimum frame rate : 25.000 FPS
Maximum frame rate : 25.007 FPS
Color space : YUV
Chroma subsampling : 4:2:0
Bit depth : 8 bits
Scan type : Progressive
Bits/(Pixel*Frame) : 0.091
Stream size : 2.43 GiB (94%)
Codec configuration box : avcC

Audio
ID : 2
Format : AAC LC
Format/Info : Advanced Audio Codec Low Complexity
Codec ID : mp4a-40-2
Duration : 2 h 46 min
Bit rate mode : Constant
Bit rate : 128 kb/s
Channel(s) : 2 channels
Channel layout : L R
Sampling rate : 48.0 kHz
Frame rate : 46.875 FPS (1024 SPF)
Compression mode : Lossy
Stream size : 153 MiB (6%)
Default : Yes
Alternate group : 1

 

 

 

 

 

 

Watch online

 

 

Waiting finish converting video

 

 

Server 1

 

 

 

 

 

 

 

 

 

 

 

 

Server 2

 

 

 

 

 

 

 

 

 

 

 

 

 

 

 

Uploaded By Site DX-TV.com

 

 

 

 

 

Watch Progress Wrestling 2019 Chapter 97 720p

 

 

 

 

 

 

Recommended For Free

 

 

 

 

earn4files.com

 

 

 

 

clicknupload.org

 

 

 

 

 

Download with high speed with Premium account

 

 

 

 

nitroflare.com

 

 

 

rapidgator.net

 

 

 

uploaded.net

 

 

 

 

 

 

 

 

 

Leave a Reply

Your email address will not be published. Required fields are marked *

sixteen − four =