Free Watch WWE 205 Live 2019 11 29

Free Watch WWE 205 Live 2019 11 29 DX-TV

 

 

WWE RAW

 

 

 

 

dx-tv.com

 

 

 

 

Free Watch WWE 205 Live 2019 11 29

 

 

 

 

 

Complete name : WWE.205.Live.2019.11.29.WEB.h264-HEEL.mp4
Format : MPEG-4
Format profile : Base Media
File size : 575 MiB
Duration : 47 min 12 s
Overall bit rate mode : Variable
Overall bit rate : 1 702 kb/s
Writing application : Lavf58.32.104

Video
ID : 1
Format : AVC
Duration : 47 min 12 s
Bit rate mode : Variable
Bit rate : 1 568 kb/s
Maximum bit rate : 1 663 kb/s
Width : 896 pixels
Height : 504 pixels
Display aspect ratio : 16:9
Frame rate mode : Variable
Frame rate : 30.000 FPS
Minimum frame rate : 29.412 FPS
Maximum frame rate : 30.303 FPS
Standard : NTSC
Color space : YUV
Chroma subsampling : 4:2:0
Bit depth : 8 bits
Scan type : Progressive
Bits/(Pixel*Frame) : 0.116
Stream size : 529 MiB (92%)
Color range : Limited
Color primaries : BT.709
Transfer characteristics : BT.709
Matrix coefficients : BT.709
Codec configuration box : avcC

Audio
ID : 2
Format : AAC LC
Codec ID : mp4a-40-2
Duration : 47 min 12 s
Bit rate mode : Variable
Bit rate : 125 kb/s
Maximum bit rate : 138 kb/s
Channel(s) : 2 channels
Channel layout : L R
Sampling rate : 48.0 kHz
Frame rate : 46.875 FPS (1024 SPF)
Compression mode : Lossy
Stream size : 42.3 MiB (7%)
Default : Yes
Alternate group : 1

Text #1
ID : 1-CC1
Format : EIA-608
Muxing mode : SCTE 128 / DTVCC Transport
Muxing mode, more info : Muxed in Video #1
Duration : 47 min 12 s
Bit rate mode : Constant
Stream size : 0.00 Byte (0%)
CaptionServiceName : CC1

 

 

 

 

 

 

Watch online

 

 

Waiting finish converting video

 

 

Server 1

 

 

 

 

 

 

 

 

 

 

 

 

 

Server 2

 

 

 

 

 

 

 

 

 

 

Server–3

 

 

 

 

 

 

 

 

 

 

Server 4

 

 

 

 

 

 

 

 

 

 

Uploaded By Site DX-TV.com

 

 

 

 

 

Free Watch WWE 205 Live 2019 11 29

 

 

 

 

 

 

Recommended For Free

 

 

 

 

1fichier.com

 

 

 

dl.free.fr

 

 

 

earn4files.com

 

 

 

katfile.com

 

 

 

Download with high speed Premium account

 

 

 

nitroflare.com

 

 

 

rapidgator.net

 

 

 

uploaded.net

 

 

 

 

 

 

 

 

 

 

Categories

Earn money $25 as per 1000

103