Free WWE 205 Live 2019 11 29 720p

Free WWE 205 Live 2019 11 29 720p DX-TV

 

 

WWE RAW

 

 

 

 

dx-tv.com

 

 

 

 

Free WWE 205 Live 2019 11 29 720p

 

 

 

 

 

Complete name : WWE.205.Live.2019.11.29.1080p.WEB.h264-HEEL.mp4
Format : MPEG-4
Format profile : Base Media
File size : 1.91 GiB
Duration : 47 min 12 s
Overall bit rate : 5 789 kb/s
Writing application : Lavf58.32.104

Video
ID : 1
Format : AVC
Duration : 47 min 12 s
Bit rate : 5 653 kb/s
Width : 1 920 pixels
Height : 1 080 pixels
Display aspect ratio : 16:9
Frame rate mode : Variable
Frame rate : 30.000 FPS
Minimum frame rate : 29.412 FPS
Maximum frame rate : 30.303 FPS
Color space : YUV
Chroma subsampling : 4:2:0
Bit depth : 8 bits
Scan type : Progressive
Bits/(Pixel*Frame) : 0.091
Stream size : 1.86 GiB (98%)
Codec configuration box : avcC

Audio
ID : 2
Format : AAC LC
Format/Info : Advanced Audio Codec Low Complexity
Codec ID : mp4a-40-2
Duration : 47 min 12 s
Bit rate mode : Constant
Bit rate : 125 kb/s
Channel(s) : 2 channels
Channel layout : L R
Sampling rate : 48.0 kHz
Frame rate : 46.875 FPS (1024 SPF)
Compression mode : Lossy
Stream size : 42.3 MiB (2%)
Default : Yes
Alternate group : 1

Text #1
ID : 1-CC1
Format : EIA-608
Muxing mode : SCTE 128 / DTVCC Transport
Muxing mode, more info : Muxed in Video #1
Duration : 47 min 12 s
Bit rate mode : Constant
Stream size : 0.00 Byte (0%)
CaptionServiceName : CC1

Text #2
ID : 1-CC3
Format : EIA-608
Muxing mode : SCTE 128 / DTVCC Transport
Muxing mode, more info : Muxed in Video #1
Duration : 47 min 12 s
Bit rate mode : Constant
Stream size : 0.00 Byte (0%)
CaptionServiceName : CC3

Text #3
ID : 1-1
Format : EIA-708
Muxing mode : SCTE 128 / DTVCC Transport
Muxing mode, more info : Muxed in Video #1
Duration : 47 min 12 s
Bit rate mode : Constant
Stream size : 0.00 Byte (0%)

 

 

 

 

 

 

Watch online

 

 

Waiting finish converting video

 

 

Server 1

 

 

 

 

 

 

 

 

 

 

 

 

 

Server 2

 

 

 

 

 

 

 

 

 

 

Server–3

 

 

 

 

 

 

 

 

 

 

Server 4

 

 

 

 

 

 

 

 

 

 

Uploaded By Site DX-TV.com

 

 

 

 

 

Free WWE 205 Live 2019 11 29 720p

 

 

 

 

 

 

Recommended For Free

 

 

 

 

1fichier.com

 

 

 

dl.free.fr

 

 

 

earn4files.com

 

 

 

katfile.com

 

 

 

Download with high speed Premium account

 

 

 

nitroflare.com

 

 

 

rapidgator.net

 

 

 

uploaded.net

 

 

 

 

 

 

 

 

 

 

Categories

Earn money $25 as per 1000

103