Free Watch Bar Wrestling 48 2019 11 21

Free Watch Bar Wrestling 48 2019 11 21 DX-TV

 

 

Bar Wrestling

 

 

 

 

dx-tv.com

 

 

 

 

Free Watch Bar Wrestling 48 2019 11 21

 

 

 

 

 

Complete name : Bar.Wrestling.48.2019.11.21.A.Series.of.Elimination.Events.720p.WEB.h264-NCMP.mp4
Format : MPEG-4
Format profile : Base Media
File size : 1.88 GiB
Duration : 1 h 54 min
Overall bit rate : 2 350 kb/s
Writing application : Lavf57.72.101

Video
ID : 1
Format : AVC
Duration : 1 h 54 min
Bit rate : 2 149 kb/s
Width : 1 280 pixels
Height : 720 pixels
Display aspect ratio : 16:9
Frame rate mode : Variable
Frame rate : 29.970 FPS
Minimum frame rate : 29.960 FPS
Maximum frame rate : 90 000.000 FPS
Color space : YUV
Chroma subsampling : 4:2:0
Bit depth : 8 bits
Scan type : Progressive
Bits/(Pixel*Frame) : 0.078
Stream size : 1.72 GiB (91%)
Codec configuration box : avcC

Audio
ID : 2
Format : AAC LC
Codec ID : mp4a-40-2
Duration : 1 h 54 min
Bit rate mode : Constant
Bit rate : 192 kb/s
Channel(s) : 2 channels
Channel layout : L R
Sampling rate : 48.0 kHz
Frame rate : 46.875 FPS (1024 SPF)
Compression mode : Lossy
Stream size : 158 MiB (8%)
Default : Yes
Alternate group : 1

 

 

 

 

 

 

Watch online

 

 

Server 1

 

 

 

 

 

 


 

 

 

 

 

Server 2

 

 

 

 

 

 

 

 

 

 

Server–3

 

 

 

 

 

 

 

 

 

 

Server 4

 

 

 

 

 

 

 

 

 

Uploaded By Site DX-TV.com

 

 

 

 

 

Free Watch Bar Wrestling 48 2019 11 21

 

 

 

 

 

 

Recommended For Free

 

 

 

 

1fichier.com

 

 

 

anonfile.com

 

 

 

dl.free.fr

 

 

 

katfile.com

 

 

 

Download with high speed Premium account

 

 

 

nitroflare.com

 

 

 

rapidgator.net

 

 

 

uploaded.net

 

 

 

 

 

 

 

 

 

 

Categories

Earn money $25 as per 1000

103