Watch Fight Club Pro Project Mayhem VIII 27/09/2019 Night 1

Watch Fight Club Pro Project Mayhem VIII Night one 27/09/2019 DX-TV

 

 

WWE RAW

 

 

 

 

dx-tv.com

 

 

 

 

Watch Fight Club Pro Project Mayhem VIII 27/09/2019 Night 1

 

 

 

 

 

Complete name : PROJECT MAYHEM VIII (NIGHT ONE) 27092019.mp4
Format : MPEG-4
File size : 3.38 GiB
Duration : 2 h 45 min
Overall bit rate mode : Variable
Overall bit rate : 2 926 kb/s

Video
ID : 1
Format : AVC
Format/Info : Advanced Video Codec
Codec ID/Info : Advanced Video Coding
Duration : 2 h 45 min
Bit rate : 2 669 kb/s
Width : 1 280 pixels
Height : 720 pixels
Display aspect ratio : 16:9
Frame rate mode : Constant
Frame rate : 25.000 FPS
Color space : YUV
Chroma subsampling : 4:2:0
Bit depth : 8 bits
Scan type : Progressive
Bits/(Pixel*Frame) : 0.116
Stream size : 3.08 GiB (91%)
Color range : Limited
Color primaries : BT.709
Transfer characteristics : BT.709
Matrix coefficients : BT.709
Codec configuration box : avcC

Audio
ID : 2
Format : AAC LC
Format/Info : Advanced Audio Codec Low Complexity
Codec ID : mp4a-40-2
Duration : 2 h 45 min
Bit rate mode : Variable
Bit rate : 253 kb/s
Channel(s) : 2 channels
Channel layout : L R
Sampling rate : 48.0 kHz
Frame rate : 46.875 FPS (1024 SPF)
Compression mode : Lossy
Stream size : 300 MiB (9%)

 

 

 

 

 

 

Watch online

 

 

Waiting finish converting video

 

 

Server 1

 

 

 

 

 

 

 

 

 

 

 

 

 

Server 2

 

 

 

 

 

 

 

 

 

 

Server–3

 

 

 

 

 

 

 

 

 

 

Server 4

 

 

 

 

 

 

 

 

 

 

Uploaded By Site DX-TV.com

 

 

 

 

 

Watch Fight Club Pro Project Mayhem VIII 27/09/2019 Night 1

 

 

 

 

 

 

Recommended For Free

 

 

 

 

1fichier.com

 

 

 

anonfile.com

 

 

 

dl.free.fr

 

 

 

Download with high speed Premium account

 

 

 

nitroflare.com

 

 

 

rapidgator.net

 

 

 

uploaded.net

 

 

 

 

 

 

 

 

 

 

Categories

Earn money $25 as per 1000

103