Free UFC Fight Night 179 Prelims Online

Watch Free UFC Fight Night 179 Prelims Online DX-TV

UFC Fight Night 179

 

 UFC Fight Night 179

Free UFC Fight Night 179 Prelims Online

 

PRELIMINARY CARD

  • Kyler Phillips vs. Cameron Else; Bantamweight
  • Carlos Condit vs. Court McGee; Welterweight 
  • Charles Jourdain vs. Josh Culibao; Featherweight 
  • Jordan Williams vs. Nassourdine Imavov; Middleweight 
  • Loma Lookboonmee vs. Jinh Yu Frey; Women’s Strawweight 
  • Casey Kenney vs. Heili Alateng; Bantamweight 
  • Luigi Vendramini vs. Jessin Ayari; Lightweight 

 

UFC Fight Night 179 Holm vs Aldana

Holly Holm continues her journey to once again become the women’s bantamweight champion on Saturday night, as she returns to the Octagon to face rising contender Irene Aldana in the main event of UFC Fight Night at “Fight Island” from the Flash Forum in Yas Island, Abu Dhabi.

Initially, Holm and Aldana were scheduled to meet at the beginning of August. But 10 days before the fight, Aldana had bow out due to contracting COVID-19. Holm was taken off the card and moved to Saturday at the top of the marquee. 

UFC Fight Night 179

Complete name : UFC.Fight.Night.179.Prelims.WEB.mp4
Format : MPEG-4
Format profile : Base Media
Codec ID : isom
File size : 1.72 GiB
Duration : 3 h 33 min
Overall bit rate mode : Variable
Overall bit rate : 1 148 kb/s
Writing application : Lavf58.12.100

UFC Fight Night 179

Video
ID : 2
Format : AVC
Format/Info : Advanced
Duration : 3 h 33 min
Bit rate mode : Variable
Bit rate : 1 008 kb/s
Maximum bit rate : 1 069 kb/s
Width : 896 pixels
Height : 504 pixels
Display aspect ratio : 16:9
Frame rate mode : Variable
Frame rate : 30.000 FPS
Standard : NTSC
Color space : YUV
Chroma subsampling : 4:2:0
Bit depth : 8 bits
Scan type : Progressive
Bits/(Pixel*Frame) : 0.074
Stream size : 1.51 GiB (88%)
Color range : Limited
Color primaries : BT.709
Transfer characteristics : BT.709
Matrix coefficients : BT.709
Codec configuration box : avcC

UFC Fight Night 179

Audio
ID : 3
Format : AAC LC
Format/Info : Advanced Audio
Codec ID : mp4a-40-2
Duration : 3 h 33 min
Bit rate mode : Constant
Bit rate : 132 kb/s
Channel(s) : 2 channels
Channel layout : L R
Sampling rate : 48.0 kHz
Frame rate : 46.875 FPS (1024 SPF)
Compression mode : Lossy
Stream size : 202 MiB (11%)
Default : Yes
Alternate group : 1

 

 

 

Free UFC Fight Night 179 Prelims Online

 

 

 

 

Watch online

 

 

 

 

 

Server 1

 

 

 

 

watch now

 

 

 

 

Server-2

 

 

 

UFC Fight Night 179

 

 

 

 

Server-3

 

 

 

watch now

 

 

 

 

Uploaded By Site DX-TV.com

 

 

 

 

Download Free Links with normal and high Speed [ more 14 hosts ]  

 

 

 

http://shrt10.com/xRGjQP
http://shrt10.com/67KIu9v
http://shrt10.com/xRtHQe
http://shrt10.com/kIAaKz
http://shrt10.com/NB2Al
http://shrt10.com/fj53doqIp
http://shrt10.com/tVD9G
http://shrt10.com/6IhGnCLX
http://shrt10.com/xJfdDBkS
http://shrt10.com/pIvLq
http://shrt10.com/UDEGEk
http://shrt10.com/KsDlk

 

 

 

 

Download Links with premium High Speed   

 

 

 

nitroflare.com

 

 

 

rapidgator.net

 

 

 

uploaded.net

 

 

 

uploadgig.com

 

 

 

 

 

dx-tv.com

 

urlfree.net

Leave a Reply

Your email address will not be published. Required fields are marked *

This site uses Akismet to reduce spam. Learn how your comment data is processed.