Bellator Euro Series 9 Prelims 720p Free Online

Watch Bellator Euro Series 9 Prelims 720p Free Online DX-TV

Bellator Euro Series 9

 

 Bellator Euro Series 9

Euro Series 9 Prelims 720p Free Online

 

Ellenor made a successful debut in Newcastle, England, in February of last year.

He submitted Nathan Greyson by first-round rear-naked choke to pick up his third win in his previous four outings.

Also booked for Oct. 3 is a middleweight bout between Charlie Ward (8-4) and Andy Manzolo (23-8).

is resuming its European Series with two upcoming shows at Allianz Cloud in Milan, Italy, on Sept. 26 and Oct. 3.

A third Milan show (not designated as a European Series entry) also takes place on Oct. 1,

headlined by Paul Daley and Derek Anderson and set to be the first event to air live on CBS Sports.

 

Bellator Euro Series 9

Complete name : Bellator.Euro.Series.9.Prelims.WEB.720p.x264.mp4
Format : MPEG-4
Format profile : Base Media
Codec ID : mp42
File size : 2.89 GiB
Duration : 3 h 20 min
bit rate mode : Variable
Overall bit rate : 2 061 kb/s

Bellator Euro Series 9

Video
ID : 1
Format : AVC
Duration : 3 h 20 min
Bit rate : 1 930 kb/s
Width : 1 280 pixels
Height : 720 pixels
Display aspect ratio : 16:9
Frame rate mode : Constant
Frame rate : 25.000 FPS
Color space : YUV
Chroma subsampling : 4:2:0
Bit depth : 8 bits
Scan type : Progressive
Bits/(Pixel*Frame) : 0.084
Stream size : 2.70 GiB (94%)
Color range : Limited
Color primaries : BT.709
Transfer characteristics : BT.709
Matrix coefficients : BT.709
Codec configuration box : avcC

Bellator Euro Series 9

Audio
ID : 2
Format : AAC LC
Format/Info : Advanced Audio
Codec ID : mp4a-40-2
Duration : 3 h 20 min
Bit rate mode : Variable
Bit rate : 128 kb/s
Channel(s) : 2 channels
Channel layout : L R
Sampling rate : 44.1 kHz
Frame rate : 43.066 FPS (1024 SPF)
Compression mode : Lossy
Stream size : 184 MiB (6%)

 

 Euro Series 9 Prelims 720p Free Online

 

 

 

 

Watch online

 

 

 

 

 

Server 1

 

 

 

 

watch now

 

 

 

 

Server-2

 

 

 

watch now

 

 

 

 

Server-3

 

 

 

Bellator Euro Series 9

 

 

 

 

Uploaded By Site DX-TV.com

 

 

 

 

Download Free Links with normal and high Speed [ more 14 hosts ]  

 

 

 

http://shrt10.com/9JYlSCGFE
http://shrt10.com/ziEzo
http://shrt10.com/4zfBP
http://shrt10.com/tDcyBt3L
http://shrt10.com/DU8Abv
http://shrt10.com/4trimDtep
http://shrt10.com/qe6hI
http://shrt10.com/yhGcF
http://shrt10.com/bzoBkJS9

 

 

 

 

Download Links with premium High Speed   

 

 

 

nitroflare.com

 

 

 

rapidgator.net

 

 

 

uploaded.net

 

 

 

uploadgig.com

 

 

 

 

 

dx-tv.com

 

urlfree.net

Leave a Reply

Your email address will not be published. Required fields are marked *

This site uses Akismet to reduce spam. Learn how your comment data is processed.