UFC Fight Night 179 720p Prelims Free

Watch UFC Fight Night 179 720p Prelims Free DX-TV

 

UFC Fight Night 179

 

 UFC Fight Night 179

UFC Fight Night 179 720p Prelims Free

 

HOLLY HOLM VS IRENE ALDANA LOWDOWN

Holly Holm headlines her sixth UFC event but after the infamous knockout of Ronda Rousey, Holm has gone 3-5 including four title fights losing all of them. That said, she has fought some of the best bantamweight and featherweights of all time including, Miesha Tate, Valentina Shevchenko, Germaine de Randamie, Cris Cyborg and Amanda Nunes. Her last fight at 145 lbs was a unanimous decision over Megan Anderson and with few contenders for Nunes, she was awarded a title shot back down at 135 lbs but got poleaxed with a head kick. However, she bounced back well in her last fight beating Raquel Pennington for the second time.

UFC Fight Night 179

Irene Aldana cannot wait to square up against the biggest name on her resume so far especially after pulling out of their originally scheduled bout in August for Fight Night 173 due to a positive COVID-19 test. Aldana is now 5-3 in the UFC but she has shown tremendous improvements in recent fights. After Pennington snapped a three-fight win streak with a tight split decision, Aldana has gone on to earn a unanimous decision over Vanessa Melo and is now coming off the biggest win of her career, knocking out Ketlen Vieira who was unbeaten at the time.

UFC Fight Night 179

Complete name :  UFC.Fight.Night.179.Prelims.720p.WEB.mp4
Format : MPEG-4
Format profile : Base Media
Codec ID : isom 
File size : 4.59 GiB
Duration : 3 h 33 min
Overall bit rate mode : Variable
Overall bit rate : 3 075 kb/s
Writing application : Lavf58.12.100

UFC Fight Night 179

Video
ID : 2
Format : AVC
Duration : 3 h 33 min
Bit rate mode : Variable
Bit rate : 2 933 kb/s
Maximum bit rate : 3 159 kb/s
Width : 1 280 pixels
Height : 720 pixels
Display aspect ratio : 16:9
Frame rate mode : Variable
Frame rate : 30.000 FPS
Minimum frame rate : 29.412 FPS
Maximum frame rate : 30.303 FPS
Standard : NTSC
Color space : YUV
Chroma subsampling : 4:2:0
Bit depth : 8 bits
Scan type : Progressive
Bits/(Pixel*Frame) : 0.106
Stream size : 4.38 GiB (95%)
Color range : Limited
Color primaries : BT.709
Transfer characteristics : BT.709
Matrix coefficients : BT.709
Codec configuration box : avcC

UFC Fight Night 179

Audio
ID : 3
Format : AAC LC
Format/Info : Advanced
Codec ID : mp4a-40-2
Duration : 3 h 33 min
Bit rate mode : Constant
Bit rate : 132 kb/s
Channel(s) : 2 channels
Channel layout : L R
Sampling rate : 48.0 kHz
Frame rate : 46.875 FPS (1024 SPF)
Compression mode : Lossy
Stream size : 201 MiB (4%)
Default : Yes
Alternate group : 1

 

 

 

 

 

UFC Fight Night 179 720p Prelims Free

 

 

 

 

Watch online

 

 

 

 

 

Server 1

 

 

 

 

UFC Fight Night 179

 

 

 

 

Server-2

 

 

 

watch now

 

 

 

 

Server-3

 

 

 

watch now

 

 

 

 

Uploaded By Site DX-TV.com

 

 

 

Download Links with premium High Speed   

 

 

nitroflare.com

 

 

 

rapidgator.net

 

 

 

uploadgig.com

 

 

 

 

 

dx-tv.com

 

urlfree.net

Leave a Reply

Your email address will not be published. Required fields are marked *

This site uses Akismet to reduce spam. Learn how your comment data is processed.