Free MLW Saturday Night SuperFight 2019 DX-TV

Free MLW Saturday Night SuperFight 2019 DX-TV

 

 

 

 

 

 

dx-tv.com

 

 

 

 

Free MLW Saturday Night SuperFight 2019 DX-TV

 

 

 

 

 

Complete name : MLW.2019.11.02.Saturday.Night.SuperFight.WEB x264 DX-TV.mp4
Format : MPEG-4
Codec ID : mp42
File size : 2.69 GiB
Duration : 3 h 0 min
Overall bit rate : 2 137 kb/s

Video
ID : 1
Format : AVC
Duration : 3 h 0 min
Bit rate : 1 996 kb/s
Width : 960 pixels
Height : 540 pixels
Display aspect ratio : 16:9
Frame rate mode : Constant
Frame rate : 29.970 (30000/1001) FPS
Color space : YUV
Chroma subsampling : 4:2:0
Bit depth : 8 bits
Scan type : Progressive
Bits/(Pixel*Frame) : 0.128
Stream size : 2.51 GiB (93%)
Language : English
Codec configuration box : avcC

Audio
ID : 2
Format : AAC LC
Codec ID : mp4a-40-2
Duration : 3 h 0 min
Bit rate mode : Constant
Bit rate : 132 kb/s
Channel(s) : 2 channels
Channel layout : L R
Sampling rate : 48.0 kHz
Frame rate : 46.875 FPS (1024 SPF)
Compression mode : Lossy
Stream size : 173 MiB (6%)
Title : Stereo
Language : English

 

MLW Saturday Night SuperFight

 

 

MLW’s first PPV is ready to pop this November 2 evening like never before. Saturday Night SuperFight features four title fights direct from Cicero

Stadium in Chicago. The main event will be a battle of unbeaten monsters as Jacob Fatu defends the Heavyweight Championship against LA Park.

Sound the horns for a hoss fight alert.

The pre-show kicks off at 7 p.m. ET live on FITE, YouTube, and other common cable and dish systems. The PPV begins at 8 p.m. ET with a suggested

price of $19.95. It can be streamed online through FITE and viewed via numerous other cable and dish systems. (Use this handy tool to find the channel near you.)

 

 

 

Watch online

 

 

Waiting finish converting video

 

 

Server 1

 

 

 

 

 

 

 

 

 

 

 

 

 

Server 2

 

 

 

 

 

 

 

 

 

 

 

 

 

 

 

Uploaded By Site DX-TV.com

 

 

 

 

 

Free MLW Saturday Night SuperFight 2019 DX-TV

 

 

 

 

 

 

Recommended For Free

 

 

 

 

earn4files.com

 

 

 

clicknupload.org

 

 

 

 

 

Download with high speed with Premium account

 

 

 

 

nitroflare.com

 

 

 

rapidgator.net

 

 

 

uploaded.net

 

 

 

uploadgig.com

 

 

 

 

 

 

Leave a Reply

Your email address will not be published. Required fields are marked *

This site uses Akismet to reduce spam. Learn how your comment data is processed.