Watch FIP 2019 11 01 In Full Force

Watch FIP 2019 11 01 In Full Force 720p DX-TV

 

 

n Full Force

 

 

 

 

dx-tv.com

 

 

 

 

Watch FIP 2019 11 01 In Full Force

 

 

 

 

 

Complete name : FIP.2019.11.01.In.Full.Force.720p.WEB.h264-iNDYHEEL.mp4
Format : MPEG-4
Format profile : Base Media
Codec ID : isom
File size : 2.24 GiB
Duration : 2 h 28 min
Overall bit rate : 2 156 kb/s
Writing application : Lavf58.32.104

Video
ID : 1
Format : AVC
Duration : 2 h 28 min
Bit rate : 2 053 kb/s
Width : 1 280 pixels
Height : 720 pixels
Display aspect ratio : 16:9
Frame rate mode : Variable
Frame rate : 29.970 (29970/1000) FPS
Minimum frame rate : 0.588 FPS
Maximum frame rate : 30.303 FPS
Color space : YUV
Chroma subsampling : 4:2:0
Bit depth : 8 bits
Scan type : Progressive
Bits/(Pixel*Frame) : 0.074
Stream size : 2.13 GiB (95%)
Codec configuration box : avcC

Audio
ID : 2
Format : AAC LC
Codec ID : mp4a-40-2
Duration : 2 h 28 min
Bit rate mode : Constant
Bit rate : 93.9 kb/s
Channel(s) : 2 channels
Channel layout : L R
Sampling rate : 48.0 kHz
Frame rate : 46.875 FPS (1024 SPF)
Compression mode : Lossy
Stream size : 99.9 MiB (4%)
Default : Yes

 

 

Name of the event: FIP In Full Force 2019
Date: 01.11.2019
Promotion: Full Impact Pro, World Wrestling Network
Type: Pay Per View
Location: Ybor City, Florida, USA
Arena: The Orpheum
Broadcast type: Live
Broadcast date: 01.11.2019

 

 

Singles Match
Bryan Idol (w/Natalia Markova & Sean Davis) defeats Damien Angel

Singles Match
Natalia Markova (w/Sean Davis) defeats Katalina Perez

Singles Match
Faboo Andre (w/Sean Davis) vs. Francisco Ciatso – No Contest

Tag Team Match
The End (Odinson & Parrow) defeat The Dirty Blondes (Leo Brien & Michael Patrick) (w/Sean Davis)

Non Title Match
Anthony Henry defeats Troy Hollywood

FIP Florida Heritage Title Match
Jon Davis (c) defeats Snoop Strikes

Singles Match
Leon Ruff defeats Hunter Law

Singles Match
Zachary Cooper defeats Cyrus Satin

FIP Tag Team Title Match
The Skulk (Adrian Alanis & Liam Gray) defeat The Precipice (Chance Champion & Omar Amir) (w/Skinny Vinny) (c) – TITLE CHANGE !!!

 

Watch online

 

 

Waiting finish converting video

 

 

Server 1

 

 

 

 

 

 

 

 

 

 

Server 2

 

 

 

 

 

 

 


 

 

 

 

 

Uploaded By Site DX-TV.com

 

 

 

 

 

Watch FIP 2019 11 01 In Full Force

 

 

 

 

 

 

Recommended For Free

 

 

 

 

earn4files.com

 

 

clicknupload.org

 

 

 

 

 

Download with high speed with Premium account

 

 

 

 

nitroflare.com

 

 

 

rapidgator.net

 

 

 

uploaded.net

 

 

 

uploadgig.com

 

 

 

 

 

 

Leave a Reply

Your email address will not be published. Required fields are marked *

17 + eleven =