Download WWE SmackDown 2020 01 17 1080p Star

Download WWE SmackDown 2020 01 17 1080p Star DX-TV

 

 

wwe raw

 

 

 

 

dx-tv.com

 

 

 

 

Download WWE SmackDown 2020 01 17 1080p Star

 

 

 

 

Complete name : WWE.SmackDown.2020.01.17.1080p.HDTV.x264-Star.mkv
Format : Matroska
Format version : Version 4
File size : 6.62 GiB
Duration : 1 h 27 min
Overall bit rate : 10.8 Mb/s
Writing library : Lavf58.29.100
ErrorDetectionType : Per level 1

Video
ID : 1
Format : AVC
Codec ID : V_MPEG4/ISO/AVC
Duration : 1 h 27 min
Bit rate : 10.5 Mb/s
Width : 1 920 pixels
Height : 1 080 pixels
Display aspect ratio : 16:9
Frame rate mode : Constant
Frame rate : 25.000 FPS
Color space : YUV
Chroma subsampling : 4:2:0
Bit depth : 8 bits
Scan type : Progressive
Bits/(Pixel*Frame) : 0.203
Stream size : 6.33 GiB (96%)
Color range : Limited
Color primaries : BT.709
Transfer characteristics : BT.709
Matrix coefficients : BT.709

Audio
ID : 2
Format : AC-3
Codec ID : A_AC3
Duration : 1 h 27 min
Bit rate mode : Constant
Bit rate : 256 kb/s
Channel(s) : 2 channels
Channel layout : L R
Sampling rate : 48.0 kHz
Frame rate : 31.250 FPS (1536 SPF)
Compression mode : Lossy
Delay relative to video : -5 ms
Stream size : 160 MiB (2%)
Title : Stereo
Language : any
Default : Yes
Forced : No

 

 

 

Watch online

 

Server 1

 

 

watch now

 

 

 

Download WWE SmackDown 2020 01 17 1080p Star

 

 

 

Uploaded By Site DX-TV.com

 

 

 

 

 

Download VIP Members FTP server Download 1 Link and Free Links 

 

 

 

Limited Time will be removed after 90 days if you need available again pm email admin

 

[member]  

FTP Link Download high speed

[/member]

1fichier.com 

 

 

earn4files.com

 

 

dl.free.fr

http://dl.free.fr/lp3VIss2M

 

 

Download with premium account Links 

 

 

nitroflare.com

 

 

rapidgator.net