WWE SmackDown 2020 01 17 720p

WWE SmackDown 2020 01 17 720p HEEL DX-TV

 

 

wwe raw

 

 

 

 

dx-tv.com

 

 

 

 

WWE SmackDown 2020 01 17 720p

 

 

 

 

Complete name : WWE.SmackDown.2020.01.17.720p.WEB.h264-HEEL.mp4
Format : MPEG-4
Format profile : Base Media
File size : 5.08 GiB
Duration : 1 h 26 min
Overall bit rate mode : Variable
Overall bit rate : 8 379 kb/s
Law rating : TV-PG (DLV)

Video
ID : 1
Format : AVC
Duration : 1 h 26 min
Bit rate mode : Variable
Bit rate : 8 306 kb/s
Maximum bit rate : 12.0 Mb/s
Width : 1 280 pixels
Height : 720 pixels
Display aspect ratio : 16:9
Frame rate mode : Variable
Frame rate : 59.940 FPS
Minimum frame rate : 59.563 FPS
Maximum frame rate : 61.100 FPS
Original frame rate : 60.000 FPS
Color space : YUV
Chroma subsampling : 4:2:0
Bit depth : 8 bits
Scan type : Progressive
Bits/(Pixel*Frame) : 0.150
Stream size : 5.04 GiB (99%)
Codec configuration box : avcC

Audio
ID : 2
Format : AAC LC SBR
Commercial name : HE-AAC
Format settings : Implicit
Codec ID : mp4a-40-2
Duration : 1 h 26 min
Bit rate mode : Constant
Bit rate : 62.8 kb/s
Channel(s) : 2 channels
Channel layout : L R
Sampling rate : 48.0 kHz
Frame rate : 23.438 FPS (2048 SPF)
Compression mode : Lossy
Stream size : 39.0 MiB (1%)
Default : Yes
Alternate group : 1

 

 

 

 

 

 

Watch online

 

 

Server 1

 

 

watch now

 

 

 

WWE SmackDown 2020 01 17 720p

 

 

 

Uploaded By Site DX-TV.com

 

 

 

 

 

Download VIP Members FTP server Download 1 Link and Free Links 

 

 

 

Limited Time will be removed after 90 days if you need available again pm email admin

 

[member]
 

 

FTP Link Download high speed

[/member]
 

1fichier.com 

 

dl.free.fr

 

 

earn4files.com

 

Download with premium account Links 

 

 

nitroflare.com

 

 

rapidgator.net