Download WWE Raw 720p 2020 10 05 Full Show mp4

Watch WWE Monday Night Raw 2020 10 05 720p HDTV NWCHD DX-TV

 

Download WWE Raw

 

 Download WWE Raw
 


 

 

Download WWE Raw 720p 2020 10 05 Full Show mp4

 

Asuka, Mandy Rose & Dana Brooke def. Zelina Vega, Natalya & Lana

 

In Raw’s opening match, the Raw Women’s Champion joined forces with Monday night’s newest tag team, Mandy Rose & Dana Brooke, to battle Zelina Vega, Natalya & Lana. Despite the best efforts of Vega to distract her opponents, The Golden Goddess rocked Lana with a knee strike to get the three-count.

Download WWE Raw

The Ravishing Russian’s night did not end there, though. WWE Women’s Tag Team Champions Nia Jax & Shayna Baszler arrived and seemed ready to plant Natalya through the commentary desk, until Lana came to her rescue. Unfortunately, Jax then grabbed The Ravishing Russian and drove her through the table with a Samoan Drop for the third consecutive week.

 

Download WWE Raw

Complete name : WWE.Monday.Night.Raw.2020.10.05.720p.HDTV.x264-NWCHD.mp4
Format : MPEG-4
Format profile : Base Media
Codec ID : isom
File size : 4.21 GiB
Duration : 2 h 8 min
Overall bit rate : 4 704 kb/s
Writing application : Lavf58.27

Download WWE Raw

Video
ID : 1
Format : AVC
Duration : 2 h 8 min
Bit rate : 4 500 kb/s
Width : 1 280 pixels
Height : 720 pixels
Display aspect ratio : 16:9
Frame rate mode : Variable
Frame rate : 29.970 FPS
Color space : YUV
Chroma subsampling : 4:2:0
Bit depth : 8 bits
Scan type : Progressive
Bits/(Pixel*Frame) : 0.163
Stream size : 4.03 GiB (96%)
Color primaries : BT.709
Transfer characteristics : BT.709
Matrix coefficients : BT.709
Codec configuration box : avcC

Download WWE Raw

Audio
ID : 2
Format : AAC LC
Format/Info : Advanced Audio
Codec ID : mp4a-40-2
Duration : 2 h 8 min
Bit rate mode : Constant
Bit rate : 192 kb/s
Channel(s) : 2 channels
Channel layout : L R
Sampling rate : 48.0 kHz
Frame rate : 46.875 FPS (1024 SPF)
Compression mode : Lossy
Stream size : 176 MiB (4%)
Title : Stereo
Language : English
Default : Yes
Alternate group : 1

 

 

 

Download WWE Raw 720p 2020 10 05 Full Show mp4

 

 

Watch online

 

Server 1

 

 

 

 

watch now

 

 

 

 

Server-2

 

 

 

Download WWE Raw

 

 

 

 

Server-3

 

 

 

watch now

 

 

 

 

Uploaded By Site DX-TV.com

 

 

 

 

Download Free Links with normal and high Speed [ more 14 hosts ]  

 

 

 

http://shrt10.com/GzWWg
http://shrt10.com/X2ep1
http://shrt10.com/Dc1e4r
http://shrt10.com/XhyLb2Q
http://shrt10.com/xf1167b2
http://shrt10.com/sB9Ib2n81
http://shrt10.com/ENBHQ

 

 

 

 

Download Links with premium High Speed   

 

 

 

 

nitroflare.com

 

 

 

rapidgator.net

 

 

 

uploaded.net

 

 

 

uploadgig.com

 

 

 

 

 

dx-tv.com

 

urlfree.net

Leave a Reply

Your email address will not be published. Required fields are marked *

This site uses Akismet to reduce spam. Learn how your comment data is processed.