WWE Raw 2020 10 05 Full Show Online

Watch WWE Monday Night Raw 2020 10 05 HDTV NWCHD DX-TV

 

WWE Raw

 

 WWE Raw

WWE Raw 2020 10 05 Full Show Online

 

 

Drew McIntyre confronted Randy Orton

Monday Night Raw kicked off with The Viper, who addressed the WWE Universe from the Legends Lounge, recalling his ruthless attack on Ric Flair,

Shawn Michaels, Big Show and Christian in painfully detailed fashion.

The Viper then said he would not stop until he is once again WWE Champion,

issuing a challenge to Drew McIntyre to meet him inside Hell in a Cell.

The WWE Champion then arrived, ready to take Orton to Hell a little earlier than expected.

McIntyre pounced on The Apex Predator until he was pulled off by WWE officials, giving The Viper an opening to slither away.

WWE Raw 2020 10 05

Complete name : WWE.Monday.Night.Raw.2020.10.05.HDTV.x264-NWCHD.mp4
Format : MPEG-4
Format profile : Base Media
Codec ID : isom
File size : 1.43 GiB
Duration : 2 h 8 min
Overall bit rate : 1 600 kb/s
Writing application : Lavf58.27 

WWE Raw 2020 10 05

Video
ID : 1
Format : AVC
Duration : 2 h 8 min
Bit rate : 1 400 kb/s
Width : 704 pixels
Height : 400 pixels
Display aspect ratio : 16:9
Original aspect rat : 16:9
Frame rate mode : Variable
Frame rate : 29.970 FPS
Color space : YUV
Chroma : 4:2:0
Bit depth : 8 bits
Scan type : Progressive
Bits/(Pixel*Frame) : 0.166
Stream size : 1.25 GiB (87%)
Color primaries : BT.709
Transfer characteristics : BT.709
Matrix coefficients : BT.709
Codec configuration box : avcC

WWE Raw 2020 10 05

Audio
ID : 2
Format : AAC LC
Format/Info : Advanced Audio
Codec ID : mp4a-40-2
Duration : 2 h 8 min
Bit rate mode : Constant
Bit rate : 192 kb/s
Channel(s) : 2 channels
Channel layout : L R
Sampling rate : 48.0 kHz
Frame rate : 46.875 FPS
Compression mode : Lossy
Stream size : 176 MiB (12%)
Title : Stereo
Language : English
Default : Yes
Alternate group : 1

 

 Raw 2020 10 05 Full Show Online

 

Watch online

 

Server 1

 

 

 

 

watch now

 

 

 

 

Server-2

 

 

 

WWE Raw

 

 

 

 

Server-3

 

 

 

watch now

 

 

 

 

Uploaded By Site DX-TV.com

 

 

 

 

Download Free Links with normal and high Speed [ more 14 hosts ]  

 

 

http://shrt10.com/QZDWsibR5
http://shrt10.com/CAxgR

http://shrt10.com/Zilia4zo7
http://shrt10.com/g9t9xgxIF
http://shrt10.com/SfR1MMCC
http://shrt10.com/lKB5qV
http://shrt10.com/pidmpIhn
http://shrt10.com/GolGHmr
http://shrt10.com/WZ4iOhP
http://shrt10.com/cbgRPuK
http://shrt10.com/uUXtIv
http://shrt10.com/QZDWsibR5
http://shrt10.com/CAxgR

 

 

 

 

Download Links with premium High Speed   

 

 

 

 

nitroflare.com

 

 

 

rapidgator.net

 

 

 

uploaded.net

 

 

 

uploadgig.com

 

 

 

 

 

dx-tv.com

 

urlfree.net

Leave a Reply

Your email address will not be published. Required fields are marked *

This site uses Akismet to reduce spam. Learn how your comment data is processed.