WWE RAW Talk 2020 10 05 free Online

Watch WWE RAW Talk 2020 10 05 free online 1080p DX-TV

 

WWE RAW

 

 WWE RAW

 

WWE RAW Talk 2020 10 05 free online

 

No one on any brand is ready for Asuka: Raw Talk, Oct. 5, 2020 (WWE Network Exclusive)

The Raw Women’s Champion is ready for any and all challengers that might come her 

Aleister Black wants a barbaric rematch with Owens: WWE Network Exclusive, Oct. 5, 2020

The Dutch Destroyer issues a challenge for one more fight with Kevin Owens.

WWE RAW

Complete name : WWE.RAW.Talk.5th.Oct.2020.1080p.WEBRip.h264-TJ.mp4
Format : MPEG-4
Format profile : Base Media
Codec ID : isom
File size : 1.17 GiB
Duration : 21 min 6 s
Overall bit rate : 7 913 kb/s
Writing application : Lavf58.25.100

WWE RAW

Video
ID : 1
Format : AVC
Format/Info : Advanced
Duration : 21 min 6 s
Bit rate : 7 808 kb/s
Width : 1 920 pixels
Height : 1 080 pixels
Display aspect ratio : 16:9
Frame rate mode : Constant
Frame rate : 30.000 FPS
Color space : YUV
Chroma subsampling : 4:2:0
Bit depth : 8 bits
Scan type : Progressive
Bits/(Pixel*Frame) : 0.126
Stream size : 1.14 GiB (97%)

WWE RAW

Audio
ID : 2
Format : AAC LC
Format/Info : Advanced Audio
Codec ID : mp4a-40-2
Duration : 21 min 6 s
Bit rate mode : Constant
Bit rate : 192 kb/s
Channel(s) : 2 channels
Channel layout : L R
Sampling rate : 48.0 kHz
Frame rate : 46.875 FPS (1024 SPF)
Compression mode : Lossy
Stream size : 29.2 MiB (2%)
Default : Yes
Alternate group : 1

 

 

 

WWE RAW Talk 2020 10 05 free online

 

 

 

 

Watch online

 

 

 

 

 

Server 1

 

WWE RAW Live

 

 

watch now

 

WWE RAW

 

 

Server-2

 

 

 

WWE RAW

 

 

 

 

Server-3

 

 

 

watch now

 

 

 

 

Uploaded By Site DX-TV.com

 

Download Free Links with normal and high Speed [ more 14 hosts ]  

 

 

 

 

http://shrt10.com/oIa4C7f
http://shrt10.com/bEZlOad
http://shrt10.com/dT1Sm
http://shrt10.com/XaA5V
http://shrt10.com/2LdpW
http://shrt10.com/odqhEB
http://shrt10.com/cgvQUm6E
http://shrt10.com/gwv51L
http://shrt10.com/6Kz7pahY
http://shrt10.com/mPiROHQs
http://shrt10.com/5y2wWG

 

 

 

Download Links with premium High Speed   

 

 

 

 

nitroflare.com

 

 

 

rapidgator.net

 

 

 

uploaded.net

 

 

 

uploadgig.com

 

 

 

 

 

dx-tv.com

 

urlfree.net

Leave a Reply

Your email address will not be published. Required fields are marked *

This site uses Akismet to reduce spam. Learn how your comment data is processed.