Download WWE RAW 29 06 2020 720p Full Show

Download WWE RAW 29 06 2020 720p Full Show HDTV Star DX-TV

 

WWE RAW

 WWE Raw

Download WWE RAW 29 06 2020 720p Full Show

 

 

 

Complete name : WWE.RAW.2020.06.29.720p.HDTV.x264-Star – BY DX-TV.COM.mkv
Format : Matroska
Format version : Version 4
File size : 9.65 GiB
Duration : 2 h 11 min
Overall bit rate : 10.5 Mb/s
Encoded date : UTC 2020-06-30 06:10:14
Writing application : WWE RAW
Writing library : Lavf58.29.100
DetectionType : Per level 1

Download WWE RAW 29 06 2020 720p Full Show

Video
ID : 1
Format : AVC
Format/Info : Advanced Video Codec
wprofile : [email protected]
Format settings : WWE RAW
asettings, CABAC : Yes
Format settings, : 4 frames
Codec ID : V_MPEG4/ISO/AVC
Duration : 2 h 11 min
Bit rate : 10 000 kb/s
Width : 1 280 pixels
Height : 720 pixels
Display aspect ratio : 16:9
Frame rate mode : Constant
Frame rate : 59.940 (60000/1001) FPS
Color space : YUV
Chroma subsampling : 4:2:0
Bit depth : 8 bits
Scan type : Progressive
Bits/(Pixel*Frame) : 0.181
Stream size : 9.05 GiB (94%)
Default : Yes
Forced : No
Color range : Limited
Color primaries : BT.709
Transfer WWE RAW : BT.709
Matrix coefficients : BT.709

WWE RAW 29 06 2020 720p Full Show

Audio
ID : 2
Format : AC-3
Format/Info : Audio Coding 3
Commercial name : WWE RAW
Codec ID : A_AC3
Duration : 2 h 11 min
Bit rate mode : Constant
Bit rate : 448 kb/s
Channel(s) : 6 channels
Channel layout : L R C LFE Ls Rs
Sampling rate : 48.0 kHz
Frame rate : 31.250 FPS (1536 SPF)
WWE RAW mode : Lossy
Delay relative to video : -5 ms
Stream size : 422 MiB (4%)
Title : Surround
Service kind : Complete Main
Default : Yes
Forced : No

 

 

Download WWE RAW 29 06 2020 720p Full Show

 

 

 

Watch online

 

 

Server 1

 

 

 

 

watch now

 

 

 

 

Server 2

 

 

 

watch now

 

 

 

Server-3

 

 

 

WWE RAW

 

 

 

Uploaded By Site DX-TV.com

 

 

 

Download with premium account Links 

 

 

Keep2Share

 

 

nitroflare.com

 

 

rapidgator.net

 

 

uploadgig.com

 

 

 

dx-tv.com

 

urlfree.net

 86 total views,  1 views today

Leave a Reply

Your email address will not be published. Required fields are marked *

This site uses Akismet to reduce spam. Learn how your comment data is processed.

%d bloggers like this:
Optimized with PageSpeed Ninja