Watch WWE RAW 29 06 2020 HDTV Star

WWE RAW 2020 06 29 HDTV Star DX-TV

 

WWE RAW 29 

 WWE Raw
 

Watch WWE RAW 29 06 2020 HDTV Star

 

Date: Monday, June 29, 2020.
Time: 8 p.m. ET
Location: Orlando, Florida
Venue: WWE Performance Center
TV Info: USA Network

 

Complete name : WWE.RAW.2020.06.29.HDTV.x264-Star.mp4
Format : MPEG-4
Format profile : Base Media
Codec ID : mp42
File size : 2.14 GiB
Duration : 2 h 11 min
Overall bit rate : 2 328 kb/s
WWE RAW date : UTC 2020-06-30
Tagged date : UTC 2020-06-30

Watch WWE RAW 29 06 2020 HDTV Star

Video
ID : 1
Format : AVC
Format/Info : WWE RAW Codec
qprofile : [email protected]
Format settings : CABAC
wsettings, CABAC : Yes
Format settings, : 4 frames
Codec ID : avc1
Codec ID/Info : Advanced Video Coding
Duration : 2 h 11 min
Bit rate : 2 000 kb/s
Width : 720 pixels
Height : 480 pixels
Display aspect ratio : 16:9
Original display aspect rat : 16:9
Frame rate mode : Variable
Frame rate : 59.940 (60000/1001) FPS
WWE RAW frame rate : 59.920 FPS
Maximum frame rate : 59.960 FPS
Color space : YUV
Chroma subsampling : 4:2:0
Bit depth : 8 bits
Scan type : Progressive
Bits/(Pixel*Frame) : 0.097
Stream size : 1.85 GiB (86%)
Writing library : x264 core
Encoded date : UTC 2020-06-30
Tagged date : UTC 2020-06-30
Color range : Limited
Color primaries : BT.601 NTSC
Transfer WWE RAW : BT.709
Matrix coefficients : BT.601
Codec configuration box : avcC

Watch WWE RAW 29 06 2020 HDTV Star

Audio
ID : 2
Format : AAC LC
Format/Info : WWE RAW Codec
Codec ID : mp4a-40-2
Duration : 2 h 11 min
Bit rate mode : Constant
Bit rate : 303 kb/s
Channel(s) : 2 channels
Channel layout : L R
Sampling rate : 48.0 kHz
Frame rate : 46.875 FPS (1024 SPF)
Compression mode : Lossy
Stream size : 286 MiB (13%)
Title : Stereo
WWE RAW : Yes
Alternate group : 1
Encoded date : UTC 2020-06-30
Tagged date : UTC 2020-06-30

 

 

Watch WWE RAW 29 06 2020 HDTV Star

 

 

 

Watch online

 

 

Server 1

 

 

 

 

watch now

 

 

 

 

Server 2

 

 

 

watch now

 

 

 

Server-3

 

 

 

WWE RAW

 

 

 

Uploaded By Site DX-TV.com

 

 

 

Download with premium account Links 

 

 

Keep2Share

 

 

nitroflare.com

 

 

rapidgator.net

 

 

uploadgig.com

 

 

 

dx-tv.com

 

urlfree.net

 76 total views,  3 views today

Leave a Reply

Your email address will not be published. Required fields are marked *

This site uses Akismet to reduce spam. Learn how your comment data is processed.

%d bloggers like this:
Optimized with PageSpeed Ninja