WWE RAW 1080p 29 06 2020 Full Show

Download WWE RAW 29 06 2020 1080p Full Show HDTV Star DX-TV

 

WWE RAW

 WWE Raw
 

 

WWE RAW 1080p 29 06 2020 Full Show

 

 

 
Complete name : WWE.RAW.2020.06.29.1080p.HDTV.x264-Star.mkv
Format : Matroska
Format version : Version 4
File size : 18.9 GiB
Duration : 2 h 11 min
Overall bit rate : 20.5 Mb/s
Encoded date : UTC 2020-06-30
Writing application : WWE RAW
Writing library : Lavf58.29.100
Detection Type : Per level 1

 RAW 1080p 29 06 2020 Full Show

Video
ID : 1
Format : AVC
aFormat/Info : Advanced Video Codec
Format profile : [email protected]
WWE RAW settings : 4 Ref Frames
Format settings, CABAC : No
Format settings, : 4 frames
Codec ID : V_MPEG4/ISO/AVC
Duration : 2 h 11 min
Bit rate : 20.0 Mb/s
Width : 1 920 pixels
Height : 1 080 pixels
WWE RAW ratio : 16:9
Frame rate mode : Constant
Frame rate : 59.940 (60000/1001) FPS
Color space : YUV
Chroma subsampling : 4:2:0
Bit depth : 8 bits
Scan type : Progressive
Bits/(Pixel*Frame) : 0.161
Stream size : 18.1 GiB (96%)
Default : Yes
Forced : No
Color range : Limited
Color primaries : BT.709
Transfer characteristics : BT.709
Matrix coefficients : BT.709

WWE RAW 1080p 29 06 2020 Full Show

Audio
ID : 2
Format : AC-3
Format/Info : Audio Coding 3
Commercial name : WWE RAW
Codec ID : A_AC3
Duration : 2 h 11 min
Bit rate mode : Constant
Bit rate : 448 kb/s
Channel(s) : 6 channels
Channel layout : L R C LFE Ls Rs
Sampling rate : 48.0 kHz
Frame rate : 31.250 FPS (1536 SPF)
WWE RAW mode : Lossy
Delay relative to video : -5 ms
Stream size : 422 MiB (2%)
Title : Surround
Service kind : Complete Main
Default : Yes
Forced : No

 

 

WWE RAW 1080p 29 06 2020 Full Show

 

 

 

Watch online

 

 

Server 1

 

 

 

 

watch now

 

 

 

 

Server 2

 

 

 

watch now

 

 

 

Server-3

 

 

 

WWE RAW

 

 

 

Uploaded By Site DX-TV.com

 

 

 

Download with premium account Links 

 

 

Keep2Share

 

 

nitroflare.com

http://shrt10.com/OtE2Zk7cz
http://shrt10.com/75gyv
http://shrt10.com/Ogs7eRG

 

rapidgator.net

 

 

 

dx-tv.com

 

urlfree.net

 92 total views,  1 views today

Leave a Reply

Your email address will not be published. Required fields are marked *

This site uses Akismet to reduce spam. Learn how your comment data is processed.

%d bloggers like this:
Optimized with PageSpeed Ninja