Download Free The Narrative II 2021 1080p 10 02 Full Show

Free The Narrative II 2021 1080p 10 02 Full Show DX-TV

Download Free The Narrative II

Download Free The Narrative II

 

 

 

Download Links with premium High Speed

Dopapk

 

 

Show Links

 

 

 

 

Nitroflare

 

 

Show Links

 

 

http://shrt10.com/84L026AG

 

 

 

 

Rapidgator

 

 

Show Links

 

 

 

Uploaded

Show Links

 

 

 

 

 

Watch Free The Narrative II online

 

Server 1

 

 

 

 

Watch Free The Narrative II

 

 

 

 

Server-2

 

 

 

 

Download Free The Narrative II

 

 

 

|Server-3

 

 

 

 

watch now

 

 

Uploaded By Site DX-TV.com

 

 

Open Info Show

 

Download Free The Narrative II

 

Complete name : Free The Narrative II The Monster In Us All 2021 10 02 1080p WEB By Site DX-TV.com.mp4
Format : MPEG-4
Format profile : Base Media
Codec ID : isom (isom/iso2/avc1/mp41)
File size : 3.54 GiB
Duration : 1 h 36 min
Overall bit rate mode : Variable
Overall bit rate : 5 242 kb/s

Video
ID : 1
Format : AVC
Format/Info : Advanced Video Codec
Codec ID/Info : Advanced Video Coding
Duration : 1 h 36 min
Bit rate mode : Variable
Bit rate : 5 024 kb/s
Maximum bit rate : 15.0 Mb/s
Width : 1 920 pixels
Height : 1 080 pixels
Display aspect ratio : 16:9
Frame rate mode : Variable
Frame rate : 29.970 (29970/1000) FPS
Minimum frame rate : 7.708 FPS
Maximum frame rate : 30.010 FPS
Original frame rate : 30.000 FPS
Color space : YUV
Chroma subsampling : 4:2:0
Bit depth : 8 bits
Scan type : Progressive
Bits/(Pixel*Frame) : 0.081
Stream size : 3.39 GiB (96%)
Codec configuration box : avcC

Download Free The Narrative II

Audio
ID : 2
Format : AAC LC
Format/Info : Advanced Audio mplexity
Codec ID : mp4a-40-2
Duration : 1 h 36 min
Bit rate mode : Variable
Bit rate : 210 kb/s
Maximum bit rate : 213 kb/s
Channel(s) : 2 channels
Channel layout : L R
Sampling rate : 44.1 kHz
Frame rate : 43.066 FPS (1024 SPF)
Compression mode : Lossy
Stream size : 145 MiB (4%)
Default : Yes
Alternate group : 1

Download Free The Narrative II

 

Video
ID : 1
Format : AVC
Format/Info : Advanced Video Codec
Codec ID/Info : Advanced Video Coding
Duration : 1 h 36 min
Bit rate mode : Variable
Bit rate : 5 024 kb/s
Maximum bit rate : 15.0 Mb/s
Width : 1 920 pixels
Height : 1 080 pixels
Display aspect ratio : 16:9
Frame rate mode : Variable
Frame rate : 29.970 (29970/1000) FPS
Minimum frame rate : 7.708 FPS
Maximum frame rate : 30.010 FPS
Original frame rate : 30.000 FPS
Color space : YUV
Chroma subsampling : 4:2:0
Bit depth : 8 bits
Scan type : Progressive
Bits/(Pixel*Frame) : 0.081
Stream size : 3.39 GiB (96%)
Codec configuration box : avcC

Download Free The Narrative II

Audio
ID : 2
Format : AAC LC
Format/Info : Advanced Audio mplexity
Codec ID : mp4a-40-2
Duration : 1 h 36 min
Bit rate mode : Variable
Bit rate : 210 kb/s
Maximum bit rate : 213 kb/s
Channel(s) : 2 channels
Channel layout : L R
Sampling rate : 44.1 kHz
Frame rate : 43.066 FPS (1024 SPF)
Compression mode : Lossy
Stream size : 145 MiB (4%)
Default : Yes
Alternate group : 1

 

https://dx-tv.com/

 

 

 

 

 

You May Also Like

Leave a Reply

Your email address will not be published. Required fields are marked *

This site uses Akismet to reduce spam. Learn how your comment data is processed.