WWE Friday Night SmackDown 2021 10 01 Free Replay

WWE Friday Night SmackDown 2021 10 01 720p Free Replay DX-TV

WWE Friday Night SmackDown

 WWE Friday Night SmackDown

 

 

 

Download Links with premium High Speed

Dopapk

 

 

Show Links

 

 

https://shrt10.com/FQ5Xwl
https://shrt10.com/gbxoFtYq

 

 

 

 

 

Nitroflare

 

 

Show Links

 

 

https://shrt10.com/rhfkoBGH4
https://shrt10.com/N4ZIT

 

 

 

 

Rapidgator

 

 

Show Links

 

 

https://shrt10.com/awpSsN5
https://shrt10.com/4fsRf

 

 

 

 

 

Uploaded
 

Show Links

 

 

https://shrt10.com/p9CeHH
https://shrt10.com/biIQIBp

 

 

 

 

 

 

 

Watch WWE Friday Night SmackDown online

 

Server 1

 

 

 

 

watch now

 

 

 

 

Server-2

 

 

 

 

watch now

 

 

 

|Server-3

 

 

 

 

WWE Friday Night SmackDown

 

 

Uploaded By Site DX-TV.com

 

 

Open Info Show

 

 

Complete name : WWE.Friday.Night.SmackDown.2021.10.01.720p.HDTV.x264-NWCHD.mp4
Format : MPEG-4
Format profile : Base Media
Codec ID : iso2/avc1/mp41)
File size : 2.78 GiB
Duration : 1 h 23 min
Overall bit rate : 4 772 kb/s

Video
ID : 1
Format : AVC
Format/Info : Advanced
Codec ID : avc1
Duration : 1 h 23 min
Bit rate : 4 500 kb/s
Maximum bit rate : 4 571 kb/s
Width : 1 280 pixels
Height : 720 pixels
Display aspect ratio : 16:9
Frame rate mode : Variable
Frame rate : 29.970 (30000/1001) FPS
Minimum frame rate : 22.624 FPS
Maximum frame rate : 29.970 FPS
Color space : YUV
Chroma subsampling : 4:2:0
Bit depth : 8 bits
Scan type : Progressive
Bits/(Pixel*Frame) : 0.163
Stream size : 2.66 GiB (96%)
Color primaries : BT.709
Transfer characteristics : BT.709
Matrix coefficients : BT.709
Codec configuration box : avcC

WWE Friday Night SmackDown

Audio
ID : 2
Format : AAC LC
Codec ID : mp4a-40-2
Duration : 1 h 23 min
Bit rate mode : Constant
Bit rate : 192 kb/s
Channel(s) : 2 channels
Channel layout : L R
Sampling rate : 48.0 kHz
Frame rate : 46.875 FPS (1024 SPF)
Compression mode : Lossy
Stream size : 114 MiB (4%)
Title : Stereo
Language : English
Default : Yes
Alternate group : 1

Complete name : WWE.Friday.Night.SmackDown.2021.10.01.HDTV.x264-NWCHD.mp4
Format : MPEG-4
Format profile : Base Media
Codec ID : i1/mp41)
File size : 969 MiB
Duration : 1 h 23 min
Overall bit rate : 1 627 kb/s

Video
ID : 1
Format : AVC
Format profile : [email protected]
Codec ID/Info : Advanced Coding
Duration : 1 h 23 min
Bit rate : 1 400 kb/s
Maximum bit rate : 1 427 kb/s
Width : 704 pixels
Height : 400 pixels
Display aspect ratio : 16:9
Frame rate mode : Variable
Frame rate : 29.970 (30000/1001) FPS
Minimum frame rate : 22.624 FPS
Maximum frame rate : 29.970 FPS
Color space : YUV
Chroma subsampling : 4:2:0
Bit depth : 8 bits
Scan type : Progressive
Bits/(Pixel*Frame) : 0.166
Stream size : 850 MiB (88%)
Color primaries : BT.709
Transfer characteristics : BT.709
Matrix coefficients : BT.709
Codec configuration box : avcC

 Friday Night SmackDown

Audio
ID : 2
Format : AAC LC
Format/Info : Advanced
Codec ID : mp4a-40-2
Duration : 1 h 23 min
Bit rate mode : Constant
Bit rate : 192 kb/s
Channel(s) : 2 channels
Channel layout : L R
Sampling rate : 48.0 kHz
Frame rate : 46.875 FPS (1024 SPF)
Compression mode : Lossy
Stream size : 114 MiB (12%)
Title : Stereo
Language : English
Default : Yes
Alternate group : 1

 

 

https://dx-tv.com/

 

 

 

 

 

You May Also Like

Leave a Reply

Your email address will not be published. Required fields are marked *

This site uses Akismet to reduce spam. Learn how your comment data is processed.