Download Bellator 247 1080p Feed HDTV Full Show

 Bellator 247 1080p Feed HDTV Full Show DX-TV

 

Bellator 247

 

 Bellator 247

Download Bellator 247 1080p Feed HDTV Full Show

 

Bellator 247

Bellator 247

Complete name :  Bellator.247 1080p.HDTV.h264 DX-TV.COM.mp4
Format : MPEG-4
Format profile : Base Media
Codec ID : isom (isom/iso2/avc1/mp41)
File size : 21.4 GiB
Duration : 4 h 57 min
Overall bit rate : 10.3 Mb/s

Bellator 247

Video
ID : 1
Format : AVC
Format/Info : Advanced 
Codec ID : avc1
Codec ID/Info : Advanced 
Duration : 4 h 57 min
Bit rate : 9 965 kb/s
Width : 1 920 pixels
Height : 1 080 pixels
Display aspect ratio : 16:9
Frame rate mode : Constant
Frame rate : 50.000 FPS
Color space : YUV
Chroma subsampling : 4:2:0
Bit depth : 8 bits
Scan type : Progressive
Bits/(Pixel*Frame) : 0.096
Stream size : 20.7 GiB (97%)
Menus : 3

Bellator 247

Audio
ID : 2
Format : AC-3
Format/Info : Audio Coding 3
Commercial name : Dolby Digital
Codec ID : ac-3
Duration : 4 h 57 min
Bit rate mode : Constant
Bit rate : 320 kb/s
Channel(s) : 6 channels
Channel layout : L R C LFE Ls Rs
Sampling rate : 48.0 kHz
Frame rate : 31.250 FPS (1536 SPF)
Compression mode : Lossy
Stream size : 681 MiB (3%)
Language : English
Service kind : Complete Main
Default : Yes
Alternate group : 1
Menus : 3

Bellator 247

Menu #1
ID : 3
Codec ID : txet
Duration : 4 h 57 min
Language : English
Menu For : 1,2

Menu #2
00:00:00.000 : Chapter 1

Bellator 247

Here are the full results for Bellator 247:

Denise Kielholtz def. Kate Jackson via KO (punches) – Round 1, 0:43

Norbert Novenyi Jr. def. Laid Zerhouni via submission (triangle choke) – Round 1, 4:36

Brian Moore def. Simone D’Anna via KO (punch) – Round 2, 3:55

Chris Duncan def. Iamik Furtado via TKO (strikes) – Round 2, 3:58

Lewis Long def. Gianni Melillo via submission (kneebar) – Round 1, 2:24

Mandy Bohm def. Griet Eeckhout via unanimous decision (30-27, 30-27, 30-27)

Uros Jurisic def. Walter Gahadza via submission (rear-naked choke) – Round 1, 3:07

Kosti Gnusariev def. Kywan Gracie via unanimous decision (30-27, 29-28, 29-28)

Lee Chadwick def. Ederson Cristian Macedo via submission (arm-triangle choke) – Round 2, 3:28

Blaine O’Driscoll def. Salah Elkas via submission (rear-naked choke) – Round 1, 2:26

Monika Tochlikova def. Jade Jorand via submission (scorpion crunch) – Round 2, 3:5

 

Download Bellator 247 1080p Feed HDTV Full Show

 

 

 

Watch online

 

Server 1

 

 

 

 

watch now

 

 

 

Server-2

 

 

 

Bellator 247

 

 

 

 

Server-3

 

 

 

watch now

 

 

 

 

Uploaded By Site DX-TV.com

 

 

Download with VIP account FTP Online With High Speed   

 

If you need FTP account Just pm admin site 

[email protected]

or

add command here  with the post

 

 

 

dx-tv.com

 

urlfree.net

Leave a Reply

Your email address will not be published. Required fields are marked *

This site uses Akismet to reduce spam. Learn how your comment data is processed.