WWE SmackDown Full Show Free Online 2020 10 02

Watch WWE Friday Night SmackDown 2020 10 02 HDTV NWCHD DX-TV

 

WWE SmackDown

 

 WWE SmackDown
 


 

 

WWE SmackDown Full Show Free Online 2020 10 02

 

Matt Riddle, Lince Dorado & Gran Metalik def. King Corbin, Shinsuke Nakamura & Cesaro

Matt Riddle formed an unlikely grouping with Lince Dorado & Gran Metalik to combine the Bro mentality with Lucha House Party. King Corbin helped the SmackDown Tag Team Champions impose their will and strength. After an inadvertent collision between Kalisto and Dorado, it appeared chemistry issues were about to undo another Lucha victory. But Riddle was there to save the day with a crushing Bro Derek on Cesaro to get the three-count. The win couldn’t cure what ailed Lucha House Party as Lince Dorado confronted Kalisto after the match while tensions continued to boil within the team.

WWE SmackDown

Complete name : WWE.Friday.Night.SmackDown.2020.10.02.HDTV.x264-NWCHD.mp4
Format : MPEG-4
Format profile : Base Media
Codec ID : isom
File size : 957 MiB
Duration : 1 h 23 min
Overall bit rate : 1 604 kb/s
Writing application : Lavf58.27.103

WWE SmackDown

Video
ID : 1
Format : AVC
Codec ID/Info : Advanced
Duration : 1 h 23 min
Bit rate : 1 400 kb/s
Width : 704 pixels
Height : 400 pixels
Display aspect ratio : 16:9
Original aspect rat : 16:9
Frame rate mode : Variable
Frame rate : 29.970 FPS
Color space : YUV
Chroma subsampling : 4:2:0
Bit depth : 8 bits
Scan type : Progressive
Bits/(Pixel*Frame) : 0.166
Stream size : 837 MiB (87%)
Color primaries : BT.709
Transfer characteristics : BT.709
Matrix coefficients : BT.709
Codec configuration box : avcC

WWE SmackDown

Audio
ID : 2
Format : AAC LC
Format/Info : Advanced Audio
Codec ID : mp4a-40-2
Duration : 1 h 23 min
Bit rate mode : Constant
Bit rate : 192 kb/s
Channel(s) : 2 channels
Channel layout : L R
Sampling rate : 48.0 kHz
Frame rate : 46.875 FPS (1024 SPF)
Compression mode : Lossy
Stream size : 115 MiB (12%)
Title : Stereo
Language : English
Default : Yes
Alternate group : 1

 

 

 

WWE SmackDown Full Show Free Online 2020 10 02

 

 

 

 

Watch online

 

 

Server 1

 

 

 

 

WWE SmackDown

 

 

 

Server-2

 

 

 

watch now

 

 

 

 

Server-3

 

 

 

WWE SmackDown

 

 

 

 

Uploaded By Site DX-TV.com

 

 

 

 

Download Free Links with normal and high Speed [ more 15 hosts ]  

 

 

 

 

http://shrt10.com/kMOJf80O
http://shrt10.com/29W4e
http://shrt10.com/seiNboSaB
http://shrt10.com/csdE1C1l
http://shrt10.com/4lYL8
http://shrt10.com/ZYQICx
http://shrt10.com/aMEQjK6S
http://shrt10.com/xMxNvH
http://shrt10.com/DQNdO
http://shrt10.com/PsqjMQRU
http://shrt10.com/AB0Pe
http://shrt10.com/C0VvNhTzo
http://shrt10.com/OgEiJunAD

 

 

 

Download Links with premium High Speed   

 

 

 

nitroflare.com

 

 

 

rapidgator.net

 

 

 

uploaded.net

 

 

 

uploadgig.com

 

 

 

 

 

dx-tv.com

 

urlfree.net

Leave a Reply

Your email address will not be published. Required fields are marked *

This site uses Akismet to reduce spam. Learn how your comment data is processed.