Watch Bellator 247 720p Full Show Online

Bellator 247 720p Full Show Online DX-TV

 

Bellator 247

 

 Bellator 247

 

Watch Bellator 247 720p Full Show Online

 

Bellator 247 aired live on CBS Sports Network. The event lost its main draw 24 hours before the opening curtain when welterweight slugger Paul Daley.

was ruled out of a fight with Derek Anderson due to complications from a weight cut, the second time the matchup had been canceled after Daley wasn’t cleared for a 2016 bout.

Bellator 247

It was a night of fast finishes in Italy. The co-headliner, Norbert Novenyi Jr. vs. Laid Zerhouni, ended shortly before the end of first frame when Novenyi Jr. finally found a submission that made Zerhouni tap. Novenyi Jr., the son of Hungarian Olympic wrestler Norbert Novenyi, got clipped with a left hand before taking his opponent to the canvas. He rolled Zerhouni with an anaconda choke attempt and reversed position when he got swept. As it turned out, being on the bottom was the winning formula when Zerhouni submitted to a triangle choke.

Bellator 247

 

Complete name : Bellator.247.Main.Card.720p HDTV.x264 DX-TV.mp4
Format : MPEG-4
Format profile : Base Media
Codec ID : isom
File size : 2.46 GiB
Duration : 1 h 51 min
Overall bit rate : 3 150 kb/s
Writing application : Lavf55.48.100

Bellator 247

Video
ID : 1
Format : AVC
Codec ID : avc1
Codec ID/Info : Advanced
Duration : 1 h 51 min
Bit rate : 3 000 kb/s
Width : 1 280 pixels
Height : 720 pixels
Display aspect ratio : 16:9
Frame rate mode : Constant
Frame rate : 30.000 FPS
Color space : YUV
Chroma subsampling : 4:2:0
Bit depth : 8 bits
Scan type : Progressive
Bits/(Pixel*Frame) : 0.109
Stream size : 2.35 GiB (96%)
Writing library : x264 core 148

Bellator 247

Audio
ID : 2
Format : AAC LC
Format/Info : Advanced
Codec ID : mp4a-40-2
Duration : 1 h 51 min
Bit rate mode : Constant
Bit rate : 128 kb/s
Channel(s) : 2 channels
Channel layout : L R
Sampling rate : 48.0 kHz
Frame rate : 46.875 FPS (1024 SPF)
Compression mode : Lossy
Stream size : 103 MiB (4%)
Default : Yes
Alternate group : 1

 

 

 

Watch Bellator 247 720p Full Show Online

 

 

 

Watch online

 

 

Server 1

 

 

 

 

watch now

 

 

 

 

Server-2

 

 

 

watch now

 

 

 

 

Server-3

 

 

 

Bellator 247

 

 

 

 

Uploaded By Site DX-TV.com

 

 

 

 

Download Free Links with normal and high Speed [ more 15 hosts ]  

 

 

 

http://shrt10.com/xB9TxHF
http://shrt10.com/oOH8kow
http://shrt10.com/pxMk7n1CI
http://shrt10.com/P7YR3Tnq
http://shrt10.com/Gb5wm
http://shrt10.com/SLzSncW5
http://shrt10.com/Wi2ohoWj
http://shrt10.com/1w9zpi
http://shrt10.com/Y3d8dJyb7
http://shrt10.com/LCtRqCvL5

 

 

 

 

Download Links with premium High Speed   

 

 

 

 

nitroflare.com

 

 

 

rapidgator.net

 

 

 

uploaded.net

 

 

 

uploadgig.com

 

 

 

 

 

dx-tv.com

 

urlfree.net

Leave a Reply

Your email address will not be published. Required fields are marked *

This site uses Akismet to reduce spam. Learn how your comment data is processed.