DDT Wrestle Peter Pan 2021 08 21 Online Free

DDT Wrestle Peter Pan 2021 08 21 Online Free Replay DX-TV

DDT Wrestle Peter Pan

 DDT Wrestle Peter Pan

 

 

 

Download Links with premium High Speed
 

 


 

Dopapk

 

 

Show Links

 

 

http://shrt10.com/h4WHfJcZg
http://shrt10.com/5ax9RIhjF
http://shrt10.com/SrZmosD6

 

[collapse]

 

 

 

 

Nitroflare

 

 

Show Links

 

 

http://shrt10.com/wMUY9ME
http://shrt10.com/2hFds9i6D
http://shrt10.com/fDDNqVJ2

 

 

[collapse]

 

 

Rapidgator

 

 

Show Links

 

 

http://shrt10.com/9CLDH
http://shrt10.com/SSEc2Q0
http://shrt10.com/WMQik

 

 

[collapse]

 

 

 

Uploaded
 

 

Show Links

 

 

http://shrt10.com/nutVKKeUq

 

 

[collapse]

 

 

 

 

 

Watch online

 

Server 1

 

 

 

 

DDT Wrestle Peter Pan

 

 

 

 

Server-2

 

 

 

 

watch now

 

 

 

|Server-3

 

 

 

 

watch now

 

 

Uploaded By Site DX-TV.com

 

 

Show Info This Show

 

DDT Wrestle Peter Pan

Complete name : DDT.2021.08.21.Wrestle.Peter.Pan.2021.JAPANESE.WEB.h264-LATE.mkv
Format : Matroska
Format version : Version 4
File size : 2.84 GiB
Duration : 3 h 27 min
Overall bit rate mode : Variable
Overall bit rate : 1 960 kb/s

Video
ID : 1
Format : AVC
Duration : 3 h 27 min
Bit rate mode : Variable
Bit rate : 1 832 kb/s
Maximum bit rate : 4 000 kb/s
Width : 960 pixels
Height : 540 pixels
Display aspect ratio : 16:9
Frame rate mode : Constant
Frame rate : 29.970 (30000/1001) FPS
Color space : YUV
Chroma subsampling : 4:2:0
Bit depth : 8 bits
Scan type : Progressive
Bits/(Pixel*Frame) : 0.118
Stream size : 2.66 GiB (93%)
Default : Yes
Forced : No
Color range : Limited
Color primaries : BT.709
Transfer characteristics : BT.709
Matrix coefficients : BT.709

DDT Wrestle Peter Pan

Audio
ID : 2
Format : AAC LC
Codec ID : A_AAC-2
Duration : 3 h 27 min
Bit rate : 125 kb/s
Channel(s) : 2 channels
Channel layout : L R
Sampling rate : 48.0 kHz
Frame rate : 46.875 FPS
Compression mode : Lossy
Delay relative to video : 4 ms
Stream size : 186 MiB (6%)
Default : Yes
Forced : No

Complete name : DDT.2021.08.21.Wrestle.Peter.Pan.2021.JAPANESE.1080p.WEB.h264-LATE.mkv
Format : Matroska
Format version : Version 4
File size : 12.9 GiB
Duration : 3 h 27 min
Overall bit rate mode : Variable
Overall bit rate : 8 899 kb/s

DDT Wrestle Peter Pan

Video
ID : 1
Format : AVC
Format/Info : Advanced Video
Duration : 3 h 27 min
Bit rate mode : Variable
Bit rate : 8 514 kb/s
Maximum bit rate : 18.0 Mb/s
Width : 1 920 pixels
Height : 1 080 pixels
Display aspect ratio : 16:9
Frame rate mode : Constant
Frame rate : 29.970 (30000/1001) FPS
Color space : YUV
Chroma subsampling : 4:2:0
Bit depth : 8 bits
Scan type : Progressive
Bits/(Pixel*Frame) : 0.137
Stream size : 12.4 GiB (96%)
Default : Yes
Forced : No
Color range : Limited
Color primaries : BT.709
Transfer characteristics : BT.709
Matrix coefficients : BT.709

DDT Wrestle Peter Pan

Audio
ID : 2
Format : AAC LC
Format/Info : Advanced Audio
Codec ID : A_AAC-2
Duration : 3 h 27 min
Bit rate : 384 kb/s
Channel(s) : 2 channels
Channel layout : L R
Sampling rate : 48.0 kHz
Frame rate : 46.875 FPS (1024 SPF)
Compression mode : Lossy
Delay relative to video : 4 ms
Stream size : 567 MiB (4%)
Default : Yes
Forced : No

Complete name : DDT.2021.08.21.Wrestle.Peter.Pan.2021.JAPANESE.720p.WEB.h264-LATE.mkv
Format : Matroska
Format version : Version 4
File size : 6.03 GiB
Duration : 3 h 27 min
Overall bit rate mode : Variable
Overall bit rate : 4 158 kb/s

DDT Wrestle Peter Pan

Video
ID : 1
Format : AVC
Format/Info : Advanced Video
Duration : 3 h 27 min
Bit rate mode : Variable
Bit rate : 3 966 kb/s
Maximum bit rate : 8 000 kb/s
Width : 1 280 pixels
Height : 720 pixels
Display aspect ratio : 16:9
Frame rate mode : Constant
Frame rate : 29.970 (30000/1001) FPS
Color space : YUV
Chroma subsampling : 4:2:0
Bit depth : 8 bits
Scan type : Progressive
Bits/(Pixel*Frame) : 0.144
Stream size : 5.75 GiB (95%)
Default : Yes
Forced : No
Color range : Limited
Color primaries : BT.709
Transfer characteristics : BT.709
Matrix coefficients : BT.709

DDT Wrestle Peter Pan

Audio
ID : 2
Format : AAC LC
Format/Info : Advanced Audio
Codec ID : A_AAC-2
Duration : 3 h 27 min
Bit rate : 192 kb/s
Channel(s) : 2 channels
Channel layout : L R
Sampling rate : 48.0 kHz
Frame rate : 46.875 FPS (1024 SPF)
Compression mode : Lossy
Delay relative to video : 4 ms
Stream size : 281 MiB (5%)
Default : Yes
Forced : No

DDT Wrestle Peter Pan

Complete name : DDT.2021.08.21.Wrestle.Peter.Pan.2021.JAPANESE.WEB.h264-LATE.mkv
Format : Matroska
Format version : Version 4
File size : 2.84 GiB
Duration : 3 h 27 min
Overall bit rate mode : Variable
Overall bit rate : 1 960 kb/s

Video
ID : 1
Format : AVC
Duration : 3 h 27 min
Bit rate mode : Variable
Bit rate : 1 832 kb/s
Maximum bit rate : 4 000 kb/s
Width : 960 pixels
Height : 540 pixels
Display aspect ratio : 16:9
Frame rate mode : Constant
Frame rate : 29.970 (30000/1001) FPS
Color space : YUV
Chroma subsampling : 4:2:0
Bit depth : 8 bits
Scan type : Progressive
Bits/(Pixel*Frame) : 0.118
Stream size : 2.66 GiB (93%)
Default : Yes
Forced : No
Color range : Limited
Color primaries : BT.709
Transfer characteristics : BT.709
Matrix coefficients : BT.709

DDT Wrestle Peter Pan

Audio
ID : 2
Format : AAC LC
Codec ID : A_AAC-2
Duration : 3 h 27 min
Bit rate : 125 kb/s
Channel(s) : 2 channels
Channel layout : L R
Sampling rate : 48.0 kHz
Frame rate : 46.875 FPS
Compression mode : Lossy
Delay relative to video : 4 ms
Stream size : 186 MiB (6%)
Default : Yes
Forced : No

Complete name : DDT.2021.08.21.Wrestle.Peter.Pan.2021.JAPANESE.1080p.WEB.h264-LATE.mkv
Format : Matroska
Format version : Version 4
File size : 12.9 GiB
Duration : 3 h 27 min
Overall bit rate mode : Variable
Overall bit rate : 8 899 kb/s

DDT Wrestle Peter Pan

Video
ID : 1
Format : AVC
Format/Info : Advanced Video
Duration : 3 h 27 min
Bit rate mode : Variable
Bit rate : 8 514 kb/s
Maximum bit rate : 18.0 Mb/s
Width : 1 920 pixels
Height : 1 080 pixels
Display aspect ratio : 16:9
Frame rate mode : Constant
Frame rate : 29.970 (30000/1001) FPS
Color space : YUV
Chroma subsampling : 4:2:0
Bit depth : 8 bits
Scan type : Progressive
Bits/(Pixel*Frame) : 0.137
Stream size : 12.4 GiB (96%)
Default : Yes
Forced : No
Color range : Limited
Color primaries : BT.709
Transfer characteristics : BT.709
Matrix coefficients : BT.709

DDT Wrestle Peter Pan

Audio
ID : 2
Format : AAC LC
Format/Info : Advanced Audio
Codec ID : A_AAC-2
Duration : 3 h 27 min
Bit rate : 384 kb/s
Channel(s) : 2 channels
Channel layout : L R
Sampling rate : 48.0 kHz
Frame rate : 46.875 FPS (1024 SPF)
Compression mode : Lossy
Delay relative to video : 4 ms
Stream size : 567 MiB (4%)
Default : Yes
Forced : No

Complete name : DDT.2021.08.21.Wrestle.Peter.Pan.2021.JAPANESE.720p.WEB.h264-LATE.mkv
Format : Matroska
Format version : Version 4
File size : 6.03 GiB
Duration : 3 h 27 min
Overall bit rate mode : Variable
Overall bit rate : 4 158 kb/s

DDT Wrestle Peter Pan

Video
ID : 1
Format : AVC
Format/Info : Advanced Video
Duration : 3 h 27 min
Bit rate mode : Variable
Bit rate : 3 966 kb/s
Maximum bit rate : 8 000 kb/s
Width : 1 280 pixels
Height : 720 pixels
Display aspect ratio : 16:9
Frame rate mode : Constant
Frame rate : 29.970 (30000/1001) FPS
Color space : YUV
Chroma subsampling : 4:2:0
Bit depth : 8 bits
Scan type : Progressive
Bits/(Pixel*Frame) : 0.144
Stream size : 5.75 GiB (95%)
Default : Yes
Forced : No
Color range : Limited
Color primaries : BT.709
Transfer characteristics : BT.709
Matrix coefficients : BT.709

DDT Wrestle Peter Pan

Audio
ID : 2
Format : AAC LC
Format/Info : Advanced Audio
Codec ID : A_AAC-2
Duration : 3 h 27 min
Bit rate : 192 kb/s
Channel(s) : 2 channels
Channel layout : L R
Sampling rate : 48.0 kHz
Frame rate : 46.875 FPS (1024 SPF)
Compression mode : Lossy
Delay relative to video : 4 ms
Stream size : 281 MiB (5%)
Default : Yes
Forced : No

DDT Wrestle Peter Pan

Complete name : DDT.2021.08.21.Wrestle.Peter.Pan.2021.JAPANESE.WEB.h264-LATE.mkv
Format : Matroska
Format version : Version 4
File size : 2.84 GiB
Duration : 3 h 27 min
Overall bit rate mode : Variable
Overall bit rate : 1 960 kb/s

Video
ID : 1
Format : AVC
Duration : 3 h 27 min
Bit rate mode : Variable
Bit rate : 1 832 kb/s
Maximum bit rate : 4 000 kb/s
Width : 960 pixels
Height : 540 pixels
Display aspect ratio : 16:9
Frame rate mode : Constant
Frame rate : 29.970 (30000/1001) FPS
Color space : YUV
Chroma subsampling : 4:2:0
Bit depth : 8 bits
Scan type : Progressive
Bits/(Pixel*Frame) : 0.118
Stream size : 2.66 GiB (93%)
Default : Yes
Forced : No
Color range : Limited
Color primaries : BT.709
Transfer characteristics : BT.709
Matrix coefficients : BT.709

DDT Wrestle Peter Pan

Audio
ID : 2
Format : AAC LC
Codec ID : A_AAC-2
Duration : 3 h 27 min
Bit rate : 125 kb/s
Channel(s) : 2 channels
Channel layout : L R
Sampling rate : 48.0 kHz
Frame rate : 46.875 FPS
Compression mode : Lossy
Delay relative to video : 4 ms
Stream size : 186 MiB (6%)
Default : Yes
Forced : No

Complete name : DDT.2021.08.21.Wrestle.Peter.Pan.2021.JAPANESE.1080p.WEB.h264-LATE.mkv
Format : Matroska
Format version : Version 4
File size : 12.9 GiB
Duration : 3 h 27 min
Overall bit rate mode : Variable
Overall bit rate : 8 899 kb/s

DDT Wrestle Peter Pan

Video
ID : 1
Format : AVC
Format/Info : Advanced Video
Duration : 3 h 27 min
Bit rate mode : Variable
Bit rate : 8 514 kb/s
Maximum bit rate : 18.0 Mb/s
Width : 1 920 pixels
Height : 1 080 pixels
Display aspect ratio : 16:9
Frame rate mode : Constant
Frame rate : 29.970 (30000/1001) FPS
Color space : YUV
Chroma subsampling : 4:2:0
Bit depth : 8 bits
Scan type : Progressive
Bits/(Pixel*Frame) : 0.137
Stream size : 12.4 GiB (96%)
Default : Yes
Forced : No
Color range : Limited
Color primaries : BT.709
Transfer characteristics : BT.709
Matrix coefficients : BT.709

DDT Wrestle Peter Pan

Audio
ID : 2
Format : AAC LC
Format/Info : Advanced Audio
Codec ID : A_AAC-2
Duration : 3 h 27 min
Bit rate : 384 kb/s
Channel(s) : 2 channels
Channel layout : L R
Sampling rate : 48.0 kHz
Frame rate : 46.875 FPS (1024 SPF)
Compression mode : Lossy
Delay relative to video : 4 ms
Stream size : 567 MiB (4%)
Default : Yes
Forced : No

Complete name : DDT.2021.08.21.Wrestle.Peter.Pan.2021.JAPANESE.720p.WEB.h264-LATE.mkv
Format : Matroska
Format version : Version 4
File size : 6.03 GiB
Duration : 3 h 27 min
Overall bit rate mode : Variable
Overall bit rate : 4 158 kb/s

DDT Wrestle Peter Pan

Video
ID : 1
Format : AVC
Format/Info : Advanced Video
Duration : 3 h 27 min
Bit rate mode : Variable
Bit rate : 3 966 kb/s
Maximum bit rate : 8 000 kb/s
Width : 1 280 pixels
Height : 720 pixels
Display aspect ratio : 16:9
Frame rate mode : Constant
Frame rate : 29.970 (30000/1001) FPS
Color space : YUV
Chroma subsampling : 4:2:0
Bit depth : 8 bits
Scan type : Progressive
Bits/(Pixel*Frame) : 0.144
Stream size : 5.75 GiB (95%)
Default : Yes
Forced : No
Color range : Limited
Color primaries : BT.709
Transfer characteristics : BT.709
Matrix coefficients : BT.709

DDT Wrestle Peter Pan

Audio
ID : 2
Format : AAC LC
Format/Info : Advanced Audio
Codec ID : A_AAC-2
Duration : 3 h 27 min
Bit rate : 192 kb/s
Channel(s) : 2 channels
Channel layout : L R
Sampling rate : 48.0 kHz
Frame rate : 46.875 FPS (1024 SPF)
Compression mode : Lossy
Delay relative to video : 4 ms
Stream size : 281 MiB (5%)
Default : Yes
Forced : No

DDT Wrestle Peter Pan

Complete name : DDT.2021.08.21.Wrestle.Peter.Pan.2021.JAPANESE.WEB.h264-LATE.mkv
Format : Matroska
Format version : Version 4
File size : 2.84 GiB
Duration : 3 h 27 min
Overall bit rate mode : Variable
Overall bit rate : 1 960 kb/s

Video
ID : 1
Format : AVC
Duration : 3 h 27 min
Bit rate mode : Variable
Bit rate : 1 832 kb/s
Maximum bit rate : 4 000 kb/s
Width : 960 pixels
Height : 540 pixels
Display aspect ratio : 16:9
Frame rate mode : Constant
Frame rate : 29.970 (30000/1001) FPS
Color space : YUV
Chroma subsampling : 4:2:0
Bit depth : 8 bits
Scan type : Progressive
Bits/(Pixel*Frame) : 0.118
Stream size : 2.66 GiB (93%)
Default : Yes
Forced : No
Color range : Limited
Color primaries : BT.709
Transfer characteristics : BT.709
Matrix coefficients : BT.709

DDT Wrestle Peter Pan

Audio
ID : 2
Format : AAC LC
Codec ID : A_AAC-2
Duration : 3 h 27 min
Bit rate : 125 kb/s
Channel(s) : 2 channels
Channel layout : L R
Sampling rate : 48.0 kHz
Frame rate : 46.875 FPS
Compression mode : Lossy
Delay relative to video : 4 ms
Stream size : 186 MiB (6%)
Default : Yes
Forced : No

Complete name : DDT.2021.08.21.Wrestle.Peter.Pan.2021.JAPANESE.1080p.WEB.h264-LATE.mkv
Format : Matroska
Format version : Version 4
File size : 12.9 GiB
Duration : 3 h 27 min
Overall bit rate mode : Variable
Overall bit rate : 8 899 kb/s

DDT Wrestle Peter Pan

Video
ID : 1
Format : AVC
Format/Info : Advanced Video
Duration : 3 h 27 min
Bit rate mode : Variable
Bit rate : 8 514 kb/s
Maximum bit rate : 18.0 Mb/s
Width : 1 920 pixels
Height : 1 080 pixels
Display aspect ratio : 16:9
Frame rate mode : Constant
Frame rate : 29.970 (30000/1001) FPS
Color space : YUV
Chroma subsampling : 4:2:0
Bit depth : 8 bits
Scan type : Progressive
Bits/(Pixel*Frame) : 0.137
Stream size : 12.4 GiB (96%)
Default : Yes
Forced : No
Color range : Limited
Color primaries : BT.709
Transfer characteristics : BT.709
Matrix coefficients : BT.709

DDT Wrestle Peter Pan

Audio
ID : 2
Format : AAC LC
Format/Info : Advanced Audio
Codec ID : A_AAC-2
Duration : 3 h 27 min
Bit rate : 384 kb/s
Channel(s) : 2 channels
Channel layout : L R
Sampling rate : 48.0 kHz
Frame rate : 46.875 FPS (1024 SPF)
Compression mode : Lossy
Delay relative to video : 4 ms
Stream size : 567 MiB (4%)
Default : Yes
Forced : No

Complete name : DDT.2021.08.21.Wrestle.Peter.Pan.2021.JAPANESE.720p.WEB.h264-LATE.mkv
Format : Matroska
Format version : Version 4
File size : 6.03 GiB
Duration : 3 h 27 min
Overall bit rate mode : Variable
Overall bit rate : 4 158 kb/s

DDT Wrestle Peter Pan

Video
ID : 1
Format : AVC
Format/Info : Advanced Video
Duration : 3 h 27 min
Bit rate mode : Variable
Bit rate : 3 966 kb/s
Maximum bit rate : 8 000 kb/s
Width : 1 280 pixels
Height : 720 pixels
Display aspect ratio : 16:9
Frame rate mode : Constant
Frame rate : 29.970 (30000/1001) FPS
Color space : YUV
Chroma subsampling : 4:2:0
Bit depth : 8 bits
Scan type : Progressive
Bits/(Pixel*Frame) : 0.144
Stream size : 5.75 GiB (95%)
Default : Yes
Forced : No
Color range : Limited
Color primaries : BT.709
Transfer characteristics : BT.709
Matrix coefficients : BT.709

DDT Wrestle Peter Pan

Audio
ID : 2
Format : AAC LC
Format/Info : Advanced Audio
Codec ID : A_AAC-2
Duration : 3 h 27 min
Bit rate : 192 kb/s
Channel(s) : 2 channels
Channel layout : L R
Sampling rate : 48.0 kHz
Frame rate : 46.875 FPS (1024 SPF)
Compression mode : Lossy
Delay relative to video : 4 ms
Stream size : 281 MiB (5%)
Default : Yes
Forced : No

DDT Wrestle Peter Pan

Complete name : DDT.2021.08.21.Wrestle.Peter.Pan.2021.JAPANESE.WEB.h264-LATE.mkv
Format : Matroska
Format version : Version 4
File size : 2.84 GiB
Duration : 3 h 27 min
Overall bit rate mode : Variable
Overall bit rate : 1 960 kb/s

Video
ID : 1
Format : AVC
Duration : 3 h 27 min
Bit rate mode : Variable
Bit rate : 1 832 kb/s
Maximum bit rate : 4 000 kb/s
Width : 960 pixels
Height : 540 pixels
Display aspect ratio : 16:9
Frame rate mode : Constant
Frame rate : 29.970 (30000/1001) FPS
Color space : YUV
Chroma subsampling : 4:2:0
Bit depth : 8 bits
Scan type : Progressive
Bits/(Pixel*Frame) : 0.118
Stream size : 2.66 GiB (93%)
Default : Yes
Forced : No
Color range : Limited
Color primaries : BT.709
Transfer characteristics : BT.709
Matrix coefficients : BT.709

DDT Wrestle Peter Pan

Audio
ID : 2
Format : AAC LC
Codec ID : A_AAC-2
Duration : 3 h 27 min
Bit rate : 125 kb/s
Channel(s) : 2 channels
Channel layout : L R
Sampling rate : 48.0 kHz
Frame rate : 46.875 FPS
Compression mode : Lossy
Delay relative to video : 4 ms
Stream size : 186 MiB (6%)
Default : Yes
Forced : No

Complete name : DDT.2021.08.21.Wrestle.Peter.Pan.2021.JAPANESE.1080p.WEB.h264-LATE.mkv
Format : Matroska
Format version : Version 4
File size : 12.9 GiB
Duration : 3 h 27 min
Overall bit rate mode : Variable
Overall bit rate : 8 899 kb/s

DDT Wrestle Peter Pan

Video
ID : 1
Format : AVC
Format/Info : Advanced Video
Duration : 3 h 27 min
Bit rate mode : Variable
Bit rate : 8 514 kb/s
Maximum bit rate : 18.0 Mb/s
Width : 1 920 pixels
Height : 1 080 pixels
Display aspect ratio : 16:9
Frame rate mode : Constant
Frame rate : 29.970 (30000/1001) FPS
Color space : YUV
Chroma subsampling : 4:2:0
Bit depth : 8 bits
Scan type : Progressive
Bits/(Pixel*Frame) : 0.137
Stream size : 12.4 GiB (96%)
Default : Yes
Forced : No
Color range : Limited
Color primaries : BT.709
Transfer characteristics : BT.709
Matrix coefficients : BT.709

DDT Wrestle Peter Pan

Audio
ID : 2
Format : AAC LC
Format/Info : Advanced Audio
Codec ID : A_AAC-2
Duration : 3 h 27 min
Bit rate : 384 kb/s
Channel(s) : 2 channels
Channel layout : L R
Sampling rate : 48.0 kHz
Frame rate : 46.875 FPS (1024 SPF)
Compression mode : Lossy
Delay relative to video : 4 ms
Stream size : 567 MiB (4%)
Default : Yes
Forced : No

Complete name : DDT.2021.08.21.Wrestle.Peter.Pan.2021.JAPANESE.720p.WEB.h264-LATE.mkv
Format : Matroska
Format version : Version 4
File size : 6.03 GiB
Duration : 3 h 27 min
Overall bit rate mode : Variable
Overall bit rate : 4 158 kb/s

DDT Wrestle Peter Pan

Video
ID : 1
Format : AVC
Format/Info : Advanced Video
Duration : 3 h 27 min
Bit rate mode : Variable
Bit rate : 3 966 kb/s
Maximum bit rate : 8 000 kb/s
Width : 1 280 pixels
Height : 720 pixels
Display aspect ratio : 16:9
Frame rate mode : Constant
Frame rate : 29.970 (30000/1001) FPS
Color space : YUV
Chroma subsampling : 4:2:0
Bit depth : 8 bits
Scan type : Progressive
Bits/(Pixel*Frame) : 0.144
Stream size : 5.75 GiB (95%)
Default : Yes
Forced : No
Color range : Limited
Color primaries : BT.709
Transfer characteristics : BT.709
Matrix coefficients : BT.709

DDT Wrestle Peter Pan

Audio
ID : 2
Format : AAC LC
Format/Info : Advanced Audio
Codec ID : A_AAC-2
Duration : 3 h 27 min
Bit rate : 192 kb/s
Channel(s) : 2 channels
Channel layout : L R
Sampling rate : 48.0 kHz
Frame rate : 46.875 FPS (1024 SPF)
Compression mode : Lossy
Delay relative to video : 4 ms
Stream size : 281 MiB (5%)
Default : Yes
Forced : No

DDT Wrestle Peter Pan

Complete name : DDT.2021.08.21.Wrestle.Peter.Pan.2021.JAPANESE.WEB.h264-LATE.mkv
Format : Matroska
Format version : Version 4
File size : 2.84 GiB
Duration : 3 h 27 min
Overall bit rate mode : Variable
Overall bit rate : 1 960 kb/s

Video
ID : 1
Format : AVC
Duration : 3 h 27 min
Bit rate mode : Variable
Bit rate : 1 832 kb/s
Maximum bit rate : 4 000 kb/s
Width : 960 pixels
Height : 540 pixels
Display aspect ratio : 16:9
Frame rate mode : Constant
Frame rate : 29.970 (30000/1001) FPS
Color space : YUV
Chroma subsampling : 4:2:0
Bit depth : 8 bits
Scan type : Progressive
Bits/(Pixel*Frame) : 0.118
Stream size : 2.66 GiB (93%)
Default : Yes
Forced : No
Color range : Limited
Color primaries : BT.709
Transfer characteristics : BT.709
Matrix coefficients : BT.709

DDT Wrestle Peter Pan

Audio
ID : 2
Format : AAC LC
Codec ID : A_AAC-2
Duration : 3 h 27 min
Bit rate : 125 kb/s
Channel(s) : 2 channels
Channel layout : L R
Sampling rate : 48.0 kHz
Frame rate : 46.875 FPS
Compression mode : Lossy
Delay relative to video : 4 ms
Stream size : 186 MiB (6%)
Default : Yes
Forced : No

Complete name : DDT.2021.08.21.Wrestle.Peter.Pan.2021.JAPANESE.1080p.WEB.h264-LATE.mkv
Format : Matroska
Format version : Version 4
File size : 12.9 GiB
Duration : 3 h 27 min
Overall bit rate mode : Variable
Overall bit rate : 8 899 kb/s

DDT Wrestle Peter Pan

Video
ID : 1
Format : AVC
Format/Info : Advanced Video
Duration : 3 h 27 min
Bit rate mode : Variable
Bit rate : 8 514 kb/s
Maximum bit rate : 18.0 Mb/s
Width : 1 920 pixels
Height : 1 080 pixels
Display aspect ratio : 16:9
Frame rate mode : Constant
Frame rate : 29.970 (30000/1001) FPS
Color space : YUV
Chroma subsampling : 4:2:0
Bit depth : 8 bits
Scan type : Progressive
Bits/(Pixel*Frame) : 0.137
Stream size : 12.4 GiB (96%)
Default : Yes
Forced : No
Color range : Limited
Color primaries : BT.709
Transfer characteristics : BT.709
Matrix coefficients : BT.709

DDT Wrestle Peter Pan

Audio
ID : 2
Format : AAC LC
Format/Info : Advanced Audio
Codec ID : A_AAC-2
Duration : 3 h 27 min
Bit rate : 384 kb/s
Channel(s) : 2 channels
Channel layout : L R
Sampling rate : 48.0 kHz
Frame rate : 46.875 FPS (1024 SPF)
Compression mode : Lossy
Delay relative to video : 4 ms
Stream size : 567 MiB (4%)
Default : Yes
Forced : No

Complete name : DDT.2021.08.21.Wrestle.Peter.Pan.2021.JAPANESE.720p.WEB.h264-LATE.mkv
Format : Matroska
Format version : Version 4
File size : 6.03 GiB
Duration : 3 h 27 min
Overall bit rate mode : Variable
Overall bit rate : 4 158 kb/s

DDT Wrestle Peter Pan

Video
ID : 1
Format : AVC
Format/Info : Advanced Video
Duration : 3 h 27 min
Bit rate mode : Variable
Bit rate : 3 966 kb/s
Maximum bit rate : 8 000 kb/s
Width : 1 280 pixels
Height : 720 pixels
Display aspect ratio : 16:9
Frame rate mode : Constant
Frame rate : 29.970 (30000/1001) FPS
Color space : YUV
Chroma subsampling : 4:2:0
Bit depth : 8 bits
Scan type : Progressive
Bits/(Pixel*Frame) : 0.144
Stream size : 5.75 GiB (95%)
Default : Yes
Forced : No
Color range : Limited
Color primaries : BT.709
Transfer characteristics : BT.709
Matrix coefficients : BT.709

DDT Wrestle Peter Pan

Audio
ID : 2
Format : AAC LC
Format/Info : Advanced Audio
Codec ID : A_AAC-2
Duration : 3 h 27 min
Bit rate : 192 kb/s
Channel(s) : 2 channels
Channel layout : L R
Sampling rate : 48.0 kHz
Frame rate : 46.875 FPS (1024 SPF)
Compression mode : Lossy
Delay relative to video : 4 ms
Stream size : 281 MiB (5%)
Default : Yes
Forced : No

DDT Wrestle Peter Pan

Complete name : DDT.2021.08.21.Wrestle.Peter.Pan.2021.JAPANESE.WEB.h264-LATE.mkv
Format : Matroska
Format version : Version 4
File size : 2.84 GiB
Duration : 3 h 27 min
Overall bit rate mode : Variable
Overall bit rate : 1 960 kb/s

Video
ID : 1
Format : AVC
Duration : 3 h 27 min
Bit rate mode : Variable
Bit rate : 1 832 kb/s
Maximum bit rate : 4 000 kb/s
Width : 960 pixels
Height : 540 pixels
Display aspect ratio : 16:9
Frame rate mode : Constant
Frame rate : 29.970 (30000/1001) FPS
Color space : YUV
Chroma subsampling : 4:2:0
Bit depth : 8 bits
Scan type : Progressive
Bits/(Pixel*Frame) : 0.118
Stream size : 2.66 GiB (93%)
Default : Yes
Forced : No
Color range : Limited
Color primaries : BT.709
Transfer characteristics : BT.709
Matrix coefficients : BT.709

DDT Wrestle Peter Pan

Audio
ID : 2
Format : AAC LC
Codec ID : A_AAC-2
Duration : 3 h 27 min
Bit rate : 125 kb/s
Channel(s) : 2 channels
Channel layout : L R
Sampling rate : 48.0 kHz
Frame rate : 46.875 FPS
Compression mode : Lossy
Delay relative to video : 4 ms
Stream size : 186 MiB (6%)
Default : Yes
Forced : No

Complete name : DDT.2021.08.21.Wrestle.Peter.Pan.2021.JAPANESE.1080p.WEB.h264-LATE.mkv
Format : Matroska
Format version : Version 4
File size : 12.9 GiB
Duration : 3 h 27 min
Overall bit rate mode : Variable
Overall bit rate : 8 899 kb/s

DDT Wrestle Peter Pan

Video
ID : 1
Format : AVC
Format/Info : Advanced Video
Duration : 3 h 27 min
Bit rate mode : Variable
Bit rate : 8 514 kb/s
Maximum bit rate : 18.0 Mb/s
Width : 1 920 pixels
Height : 1 080 pixels
Display aspect ratio : 16:9
Frame rate mode : Constant
Frame rate : 29.970 (30000/1001) FPS
Color space : YUV
Chroma subsampling : 4:2:0
Bit depth : 8 bits
Scan type : Progressive
Bits/(Pixel*Frame) : 0.137
Stream size : 12.4 GiB (96%)
Default : Yes
Forced : No
Color range : Limited
Color primaries : BT.709
Transfer characteristics : BT.709
Matrix coefficients : BT.709

DDT Wrestle Peter Pan

Audio
ID : 2
Format : AAC LC
Format/Info : Advanced Audio
Codec ID : A_AAC-2
Duration : 3 h 27 min
Bit rate : 384 kb/s
Channel(s) : 2 channels
Channel layout : L R
Sampling rate : 48.0 kHz
Frame rate : 46.875 FPS (1024 SPF)
Compression mode : Lossy
Delay relative to video : 4 ms
Stream size : 567 MiB (4%)
Default : Yes
Forced : No

Complete name : DDT.2021.08.21.Wrestle.Peter.Pan.2021.JAPANESE.720p.WEB.h264-LATE.mkv
Format : Matroska
Format version : Version 4
File size : 6.03 GiB
Duration : 3 h 27 min
Overall bit rate mode : Variable
Overall bit rate : 4 158 kb/s

DDT Wrestle Peter Pan

Video
ID : 1
Format : AVC
Format/Info : Advanced Video
Duration : 3 h 27 min
Bit rate mode : Variable
Bit rate : 3 966 kb/s
Maximum bit rate : 8 000 kb/s
Width : 1 280 pixels
Height : 720 pixels
Display aspect ratio : 16:9
Frame rate mode : Constant
Frame rate : 29.970 (30000/1001) FPS
Color space : YUV
Chroma subsampling : 4:2:0
Bit depth : 8 bits
Scan type : Progressive
Bits/(Pixel*Frame) : 0.144
Stream size : 5.75 GiB (95%)
Default : Yes
Forced : No
Color range : Limited
Color primaries : BT.709
Transfer characteristics : BT.709
Matrix coefficients : BT.709

DDT Wrestle Peter Pan

Audio
ID : 2
Format : AAC LC
Format/Info : Advanced Audio
Codec ID : A_AAC-2
Duration : 3 h 27 min
Bit rate : 192 kb/s
Channel(s) : 2 channels
Channel layout : L R
Sampling rate : 48.0 kHz
Frame rate : 46.875 FPS (1024 SPF)
Compression mode : Lossy
Delay relative to video : 4 ms
Stream size : 281 MiB (5%)
Default : Yes
Forced : No

DDT Wrestle Peter Pan

 

[collapse]

 

 

https://dx-tv.com/

Leave a Reply

Your email address will not be published. Required fields are marked *

This site uses Akismet to reduce spam. Learn how your comment data is processed.