NOAH Kawasaki Go 2021 08 15 Japan Online Free

NOAH Kawasaki Go 2021 08 15 Japan Online Free Replay DX-TV

NOAH Kawasaki Go 

 NOAH Kawasaki Go

 

 

 

Download Links with premium High Speed
 

 


 

Dopapk

 

 

Show Links

 

 

http://shrt10.com/QJJZR
http://shrt10.com/aE5l3p
http://shrt10.com/a0cKNp

 

[collapse]

 

 

 

 

Nitroflare

 

 

Show Links

 

 

http://shrt10.com/YQRwndVsE
http://shrt10.com/gyxYZ

http://shrt10.com/15m1z1

 

 

[collapse]

 

 

Rapidgator

 

 

Show Links

 

 

http://shrt10.com/AfgzK91Wp
http://shrt10.com/U0lWZ

http://shrt10.com/fFCJU0GQz

 

 

[collapse]

 

 

 

Uploaded
 

 

Show Links

 

 

http://shrt10.com/ykVshSvjW
http://shrt10.com/mrlbeWyt

 

 

[collapse]

 

 

 

 

 

Watch online

 

Server 1

 

 

 

 

NOAH Kawasaki Go 

 

 

 

 

Server-2

 

 

 

 

watch now

 

 

 

|Server-3

 

 

 

 

NOAH Kawasaki Go 

 

 

Uploaded By Site DX-TV.com

 

 

Show Info This Show

NOAH Kawasaki Go 

Complete name : NOAH.2021.08.15.Kawasaki.Go.2021.JAPANESE.720p.WEB.h264-LATE.mkv
Format : Matroska
Format version : Version 4
File size : 3.78 GiB
Duration : 4 h 12 min
Overall bit rate mode : Variable
Overall bit rate : 2 148 kb/s) 64-bit

Video
ID : 1
Format : AVC
Format/Info : Advanced Video
Duration : 4 h 12 min
Bit rate mode : Variable
Bit rate : 1 956 kb/s
Maximum bit rate : 8 000 kb/s
Width : 1 280 pixels
Height : 720 pixels
Display aspect ratio : 16:9
Frame rate mode : Constant
Frame rate : 29.970 (30000/1001) FPS
Color space : YUV
Chroma subsampling : 4:2:0
Bit depth : 8 bits
Scan type : Progressive
Bits/(Pixel*Frame) : 0.071
Stream size : 3.44 GiB (91%)
Default : Yes
Forced : No

NOAH Kawasaki Go 

Audio
ID : 2
Format : AAC LC
Codec ID : A_AAC-2
Duration : 4 h 12 min
Bit rate : 192 kb/s
Channel(s) : 2 channels
Channel layout : L R
Sampling rate : 48.0 kHz
Frame rate : 46.875 FPS (1024 SPF)
Compression mode : Lossy
Delay relative to video : -33 ms
Stream size : 341 MiB (9%)
Language : English
Default : Yes
Forced : No

NOAH Kawasaki Go 

Complete name : NOAH.2021.08.15.Kawasaki.Go.2021.JAPANESE.1080p.WEB.h264-LATE.mkv
Format : Matroska
Format version : Version 4
File size : 8.52 GiB
Duration : 4 h 12 min
Overall bit rate mode : Variable
Overall bit rate : 4 838 kb/s

Video
ID : 1
Format : AVC
Duration : 4 h 12 min
Bit rate mode : Variable
Bit rate : 4 646 kb/s
Maximum bit rate : 12.0 Mb/s
Width : 1 920 pixels
Height : 1 080 pixels
Display aspect ratio : 16:9
Frame rate mode : Constant
Frame rate : 29.970 (30000/1001) FPS
Color space : YUV
Chroma subsampling : 4:2:0
Bit depth : 8 bits
Scan type : Progressive
Bits/(Pixel*Frame) : 0.075
Stream size : 8.18 GiB (96%)
Default : Yes
Forced : No

NOAH Kawasaki Go 

Audio
ID : 2
Format : AAC LC
Codec ID : A_AAC-2
Duration : 4 h 12 min
Bit rate : 192 kb/s
Channel(s) : 2 channels
Channel layout : L R
Sampling rate : 48.0 kHz
Frame rate : 46.875 FPS (1024 SPF)
Compression mode : Lossy
Delay relative to video : -33 ms
Stream size : 341 MiB (4%)
Language : Japanese
Default : Yes
Forced : No

Complete name : NOAH.2021.08.15.Kawasaki.Go.2021.JAPANESE.WEB.h264-LATE.mkv
Format : Matroska
Format version : Version 4
File size : 2.02 GiB
Duration : 4 h 12 min
Overall bit rate mode : Variable
Overall bit rate : 1 146 kb/s

NOAH Kawasaki Go 

Video
ID : 1
Format : AVC
Format/Info : Advanced Video
Duration : 4 h 12 min
Bit rate mode : Variable
Bit rate : 954 kb/s
Maximum bit rate : 4 000 kb/s
Width : 960 pixels
Height : 540 pixels
Display aspect ratio : 16:9
Frame rate mode : Constant
Frame rate : 29.970 (30000/1001) FPS
Color space : YUV
Chroma subsampling : 4:2:0
Bit depth : 8 bits
Scan type : Progressive
Bits/(Pixel*Frame) : 0.061
Stream size : 1.68 GiB (83%)
Default : Yes
Forced : No

NOAH Kawasaki Go 

Audio
ID : 2
Format : AAC LC
Codec ID : A_AAC-2
Duration : 4 h 12 min
Bit rate : 192 kb/s
Channel(s) : 2 channels
Channel layout : L R
Sampling rate : 48.0 kHz
Frame rate : 46.875 FPS (1024 SPF)
Compression mode : Lossy
Delay relative to video : -33 ms
Stream size : 341 MiB (17%)
Language : Japanese
Default : Yes
Forced : No

NOAH Kawasaki Go 

 

Complete name : NOAH.2021.08.15.Kawasaki.Go.2021.JAPANESE.720p.WEB.h264-LATE.mkv
Format : Matroska
Format version : Version 4
File size : 3.78 GiB
Duration : 4 h 12 min
Overall bit rate mode : Variable
Overall bit rate : 2 148 kb/s) 64-bit

Video
ID : 1
Format : AVC
Format/Info : Advanced Video
Duration : 4 h 12 min
Bit rate mode : Variable
Bit rate : 1 956 kb/s
Maximum bit rate : 8 000 kb/s
Width : 1 280 pixels
Height : 720 pixels
Display aspect ratio : 16:9
Frame rate mode : Constant
Frame rate : 29.970 (30000/1001) FPS
Color space : YUV
Chroma subsampling : 4:2:0
Bit depth : 8 bits
Scan type : Progressive
Bits/(Pixel*Frame) : 0.071
Stream size : 3.44 GiB (91%)
Default : Yes
Forced : No

NOAH Kawasaki Go 

Audio
ID : 2
Format : AAC LC
Codec ID : A_AAC-2
Duration : 4 h 12 min
Bit rate : 192 kb/s
Channel(s) : 2 channels
Channel layout : L R
Sampling rate : 48.0 kHz
Frame rate : 46.875 FPS (1024 SPF)
Compression mode : Lossy
Delay relative to video : -33 ms
Stream size : 341 MiB (9%)
Language : English
Default : Yes
Forced : No

NOAH Kawasaki Go 

Complete name : NOAH.2021.08.15.Kawasaki.Go.2021.JAPANESE.1080p.WEB.h264-LATE.mkv
Format : Matroska
Format version : Version 4
File size : 8.52 GiB
Duration : 4 h 12 min
Overall bit rate mode : Variable
Overall bit rate : 4 838 kb/s

Video
ID : 1
Format : AVC
Duration : 4 h 12 min
Bit rate mode : Variable
Bit rate : 4 646 kb/s
Maximum bit rate : 12.0 Mb/s
Width : 1 920 pixels
Height : 1 080 pixels
Display aspect ratio : 16:9
Frame rate mode : Constant
Frame rate : 29.970 (30000/1001) FPS
Color space : YUV
Chroma subsampling : 4:2:0
Bit depth : 8 bits
Scan type : Progressive
Bits/(Pixel*Frame) : 0.075
Stream size : 8.18 GiB (96%)
Default : Yes
Forced : No

NOAH Kawasaki Go 

Audio
ID : 2
Format : AAC LC
Codec ID : A_AAC-2
Duration : 4 h 12 min
Bit rate : 192 kb/s
Channel(s) : 2 channels
Channel layout : L R
Sampling rate : 48.0 kHz
Frame rate : 46.875 FPS (1024 SPF)
Compression mode : Lossy
Delay relative to video : -33 ms
Stream size : 341 MiB (4%)
Language : Japanese
Default : Yes
Forced : No

Complete name : NOAH.2021.08.15.Kawasaki.Go.2021.JAPANESE.WEB.h264-LATE.mkv
Format : Matroska
Format version : Version 4
File size : 2.02 GiB
Duration : 4 h 12 min
Overall bit rate mode : Variable
Overall bit rate : 1 146 kb/s

NOAH Kawasaki Go 

Video
ID : 1
Format : AVC
Format/Info : Advanced Video
Duration : 4 h 12 min
Bit rate mode : Variable
Bit rate : 954 kb/s
Maximum bit rate : 4 000 kb/s
Width : 960 pixels
Height : 540 pixels
Display aspect ratio : 16:9
Frame rate mode : Constant
Frame rate : 29.970 (30000/1001) FPS
Color space : YUV
Chroma subsampling : 4:2:0
Bit depth : 8 bits
Scan type : Progressive
Bits/(Pixel*Frame) : 0.061
Stream size : 1.68 GiB (83%)
Default : Yes
Forced : No

NOAH Kawasaki Go 

Audio
ID : 2
Format : AAC LC
Codec ID : A_AAC-2
Duration : 4 h 12 min
Bit rate : 192 kb/s
Channel(s) : 2 channels
Channel layout : L R
Sampling rate : 48.0 kHz
Frame rate : 46.875 FPS (1024 SPF)
Compression mode : Lossy
Delay relative to video : -33 ms
Stream size : 341 MiB (17%)
Language : Japanese
Default : Yes
Forced : No

NOAH Kawasaki Go 

 

Complete name : NOAH.2021.08.15.Kawasaki.Go.2021.JAPANESE.720p.WEB.h264-LATE.mkv
Format : Matroska
Format version : Version 4
File size : 3.78 GiB
Duration : 4 h 12 min
Overall bit rate mode : Variable
Overall bit rate : 2 148 kb/s) 64-bit

Video
ID : 1
Format : AVC
Format/Info : Advanced Video
Duration : 4 h 12 min
Bit rate mode : Variable
Bit rate : 1 956 kb/s
Maximum bit rate : 8 000 kb/s
Width : 1 280 pixels
Height : 720 pixels
Display aspect ratio : 16:9
Frame rate mode : Constant
Frame rate : 29.970 (30000/1001) FPS
Color space : YUV
Chroma subsampling : 4:2:0
Bit depth : 8 bits
Scan type : Progressive
Bits/(Pixel*Frame) : 0.071
Stream size : 3.44 GiB (91%)
Default : Yes
Forced : No

NOAH Kawasaki Go 

Audio
ID : 2
Format : AAC LC
Codec ID : A_AAC-2
Duration : 4 h 12 min
Bit rate : 192 kb/s
Channel(s) : 2 channels
Channel layout : L R
Sampling rate : 48.0 kHz
Frame rate : 46.875 FPS (1024 SPF)
Compression mode : Lossy
Delay relative to video : -33 ms
Stream size : 341 MiB (9%)
Language : English
Default : Yes
Forced : No

NOAH Kawasaki Go 

Complete name : NOAH.2021.08.15.Kawasaki.Go.2021.JAPANESE.1080p.WEB.h264-LATE.mkv
Format : Matroska
Format version : Version 4
File size : 8.52 GiB
Duration : 4 h 12 min
Overall bit rate mode : Variable
Overall bit rate : 4 838 kb/s

Video
ID : 1
Format : AVC
Duration : 4 h 12 min
Bit rate mode : Variable
Bit rate : 4 646 kb/s
Maximum bit rate : 12.0 Mb/s
Width : 1 920 pixels
Height : 1 080 pixels
Display aspect ratio : 16:9
Frame rate mode : Constant
Frame rate : 29.970 (30000/1001) FPS
Color space : YUV
Chroma subsampling : 4:2:0
Bit depth : 8 bits
Scan type : Progressive
Bits/(Pixel*Frame) : 0.075
Stream size : 8.18 GiB (96%)
Default : Yes
Forced : No

NOAH Kawasaki Go 

Audio
ID : 2
Format : AAC LC
Codec ID : A_AAC-2
Duration : 4 h 12 min
Bit rate : 192 kb/s
Channel(s) : 2 channels
Channel layout : L R
Sampling rate : 48.0 kHz
Frame rate : 46.875 FPS (1024 SPF)
Compression mode : Lossy
Delay relative to video : -33 ms
Stream size : 341 MiB (4%)
Language : Japanese
Default : Yes
Forced : No

Complete name : NOAH.2021.08.15.Kawasaki.Go.2021.JAPANESE.WEB.h264-LATE.mkv
Format : Matroska
Format version : Version 4
File size : 2.02 GiB
Duration : 4 h 12 min
Overall bit rate mode : Variable
Overall bit rate : 1 146 kb/s

NOAH Kawasaki Go 

Video
ID : 1
Format : AVC
Format/Info : Advanced Video
Duration : 4 h 12 min
Bit rate mode : Variable
Bit rate : 954 kb/s
Maximum bit rate : 4 000 kb/s
Width : 960 pixels
Height : 540 pixels
Display aspect ratio : 16:9
Frame rate mode : Constant
Frame rate : 29.970 (30000/1001) FPS
Color space : YUV
Chroma subsampling : 4:2:0
Bit depth : 8 bits
Scan type : Progressive
Bits/(Pixel*Frame) : 0.061
Stream size : 1.68 GiB (83%)
Default : Yes
Forced : No

NOAH Kawasaki Go 

Audio
ID : 2
Format : AAC LC
Codec ID : A_AAC-2
Duration : 4 h 12 min
Bit rate : 192 kb/s
Channel(s) : 2 channels
Channel layout : L R
Sampling rate : 48.0 kHz
Frame rate : 46.875 FPS (1024 SPF)
Compression mode : Lossy
Delay relative to video : -33 ms
Stream size : 341 MiB (17%)
Language : Japanese
Default : Yes
Forced : No

NOAH Kawasaki Go 

 

Complete name : NOAH.2021.08.15.Kawasaki.Go.2021.JAPANESE.720p.WEB.h264-LATE.mkv
Format : Matroska
Format version : Version 4
File size : 3.78 GiB
Duration : 4 h 12 min
Overall bit rate mode : Variable
Overall bit rate : 2 148 kb/s) 64-bit

Video
ID : 1
Format : AVC
Format/Info : Advanced Video
Duration : 4 h 12 min
Bit rate mode : Variable
Bit rate : 1 956 kb/s
Maximum bit rate : 8 000 kb/s
Width : 1 280 pixels
Height : 720 pixels
Display aspect ratio : 16:9
Frame rate mode : Constant
Frame rate : 29.970 (30000/1001) FPS
Color space : YUV
Chroma subsampling : 4:2:0
Bit depth : 8 bits
Scan type : Progressive
Bits/(Pixel*Frame) : 0.071
Stream size : 3.44 GiB (91%)
Default : Yes
Forced : No

NOAH Kawasaki Go 

Audio
ID : 2
Format : AAC LC
Codec ID : A_AAC-2
Duration : 4 h 12 min
Bit rate : 192 kb/s
Channel(s) : 2 channels
Channel layout : L R
Sampling rate : 48.0 kHz
Frame rate : 46.875 FPS (1024 SPF)
Compression mode : Lossy
Delay relative to video : -33 ms
Stream size : 341 MiB (9%)
Language : English
Default : Yes
Forced : No

NOAH Kawasaki Go 

Complete name : NOAH.2021.08.15.Kawasaki.Go.2021.JAPANESE.1080p.WEB.h264-LATE.mkv
Format : Matroska
Format version : Version 4
File size : 8.52 GiB
Duration : 4 h 12 min
Overall bit rate mode : Variable
Overall bit rate : 4 838 kb/s

Video
ID : 1
Format : AVC
Duration : 4 h 12 min
Bit rate mode : Variable
Bit rate : 4 646 kb/s
Maximum bit rate : 12.0 Mb/s
Width : 1 920 pixels
Height : 1 080 pixels
Display aspect ratio : 16:9
Frame rate mode : Constant
Frame rate : 29.970 (30000/1001) FPS
Color space : YUV
Chroma subsampling : 4:2:0
Bit depth : 8 bits
Scan type : Progressive
Bits/(Pixel*Frame) : 0.075
Stream size : 8.18 GiB (96%)
Default : Yes
Forced : No

NOAH Kawasaki Go 

Audio
ID : 2
Format : AAC LC
Codec ID : A_AAC-2
Duration : 4 h 12 min
Bit rate : 192 kb/s
Channel(s) : 2 channels
Channel layout : L R
Sampling rate : 48.0 kHz
Frame rate : 46.875 FPS (1024 SPF)
Compression mode : Lossy
Delay relative to video : -33 ms
Stream size : 341 MiB (4%)
Language : Japanese
Default : Yes
Forced : No

Complete name : NOAH.2021.08.15.Kawasaki.Go.2021.JAPANESE.WEB.h264-LATE.mkv
Format : Matroska
Format version : Version 4
File size : 2.02 GiB
Duration : 4 h 12 min
Overall bit rate mode : Variable
Overall bit rate : 1 146 kb/s

NOAH Kawasaki Go 

Video
ID : 1
Format : AVC
Format/Info : Advanced Video
Duration : 4 h 12 min
Bit rate mode : Variable
Bit rate : 954 kb/s
Maximum bit rate : 4 000 kb/s
Width : 960 pixels
Height : 540 pixels
Display aspect ratio : 16:9
Frame rate mode : Constant
Frame rate : 29.970 (30000/1001) FPS
Color space : YUV
Chroma subsampling : 4:2:0
Bit depth : 8 bits
Scan type : Progressive
Bits/(Pixel*Frame) : 0.061
Stream size : 1.68 GiB (83%)
Default : Yes
Forced : No

NOAH Kawasaki Go 

Audio
ID : 2
Format : AAC LC
Codec ID : A_AAC-2
Duration : 4 h 12 min
Bit rate : 192 kb/s
Channel(s) : 2 channels
Channel layout : L R
Sampling rate : 48.0 kHz
Frame rate : 46.875 FPS (1024 SPF)
Compression mode : Lossy
Delay relative to video : -33 ms
Stream size : 341 MiB (17%)
Language : Japanese
Default : Yes
Forced : No

NOAH Kawasaki Go 

 

Complete name : NOAH.2021.08.15.Kawasaki.Go.2021.JAPANESE.720p.WEB.h264-LATE.mkv
Format : Matroska
Format version : Version 4
File size : 3.78 GiB
Duration : 4 h 12 min
Overall bit rate mode : Variable
Overall bit rate : 2 148 kb/s) 64-bit

Video
ID : 1
Format : AVC
Format/Info : Advanced Video
Duration : 4 h 12 min
Bit rate mode : Variable
Bit rate : 1 956 kb/s
Maximum bit rate : 8 000 kb/s
Width : 1 280 pixels
Height : 720 pixels
Display aspect ratio : 16:9
Frame rate mode : Constant
Frame rate : 29.970 (30000/1001) FPS
Color space : YUV
Chroma subsampling : 4:2:0
Bit depth : 8 bits
Scan type : Progressive
Bits/(Pixel*Frame) : 0.071
Stream size : 3.44 GiB (91%)
Default : Yes
Forced : No

NOAH Kawasaki Go 

Audio
ID : 2
Format : AAC LC
Codec ID : A_AAC-2
Duration : 4 h 12 min
Bit rate : 192 kb/s
Channel(s) : 2 channels
Channel layout : L R
Sampling rate : 48.0 kHz
Frame rate : 46.875 FPS (1024 SPF)
Compression mode : Lossy
Delay relative to video : -33 ms
Stream size : 341 MiB (9%)
Language : English
Default : Yes
Forced : No

NOAH Kawasaki Go 

Complete name : NOAH.2021.08.15.Kawasaki.Go.2021.JAPANESE.1080p.WEB.h264-LATE.mkv
Format : Matroska
Format version : Version 4
File size : 8.52 GiB
Duration : 4 h 12 min
Overall bit rate mode : Variable
Overall bit rate : 4 838 kb/s

Video
ID : 1
Format : AVC
Duration : 4 h 12 min
Bit rate mode : Variable
Bit rate : 4 646 kb/s
Maximum bit rate : 12.0 Mb/s
Width : 1 920 pixels
Height : 1 080 pixels
Display aspect ratio : 16:9
Frame rate mode : Constant
Frame rate : 29.970 (30000/1001) FPS
Color space : YUV
Chroma subsampling : 4:2:0
Bit depth : 8 bits
Scan type : Progressive
Bits/(Pixel*Frame) : 0.075
Stream size : 8.18 GiB (96%)
Default : Yes
Forced : No

NOAH Kawasaki Go 

Audio
ID : 2
Format : AAC LC
Codec ID : A_AAC-2
Duration : 4 h 12 min
Bit rate : 192 kb/s
Channel(s) : 2 channels
Channel layout : L R
Sampling rate : 48.0 kHz
Frame rate : 46.875 FPS (1024 SPF)
Compression mode : Lossy
Delay relative to video : -33 ms
Stream size : 341 MiB (4%)
Language : Japanese
Default : Yes
Forced : No

Complete name : NOAH.2021.08.15.Kawasaki.Go.2021.JAPANESE.WEB.h264-LATE.mkv
Format : Matroska
Format version : Version 4
File size : 2.02 GiB
Duration : 4 h 12 min
Overall bit rate mode : Variable
Overall bit rate : 1 146 kb/s

NOAH Kawasaki Go 

Video
ID : 1
Format : AVC
Format/Info : Advanced Video
Duration : 4 h 12 min
Bit rate mode : Variable
Bit rate : 954 kb/s
Maximum bit rate : 4 000 kb/s
Width : 960 pixels
Height : 540 pixels
Display aspect ratio : 16:9
Frame rate mode : Constant
Frame rate : 29.970 (30000/1001) FPS
Color space : YUV
Chroma subsampling : 4:2:0
Bit depth : 8 bits
Scan type : Progressive
Bits/(Pixel*Frame) : 0.061
Stream size : 1.68 GiB (83%)
Default : Yes
Forced : No

NOAH Kawasaki Go 

Audio
ID : 2
Format : AAC LC
Codec ID : A_AAC-2
Duration : 4 h 12 min
Bit rate : 192 kb/s
Channel(s) : 2 channels
Channel layout : L R
Sampling rate : 48.0 kHz
Frame rate : 46.875 FPS (1024 SPF)
Compression mode : Lossy
Delay relative to video : -33 ms
Stream size : 341 MiB (17%)
Language : Japanese
Default : Yes
Forced : No

NOAH Kawasaki Go 

 

Complete name : NOAH.2021.08.15.Kawasaki.Go.2021.JAPANESE.720p.WEB.h264-LATE.mkv
Format : Matroska
Format version : Version 4
File size : 3.78 GiB
Duration : 4 h 12 min
Overall bit rate mode : Variable
Overall bit rate : 2 148 kb/s) 64-bit

Video
ID : 1
Format : AVC
Format/Info : Advanced Video
Duration : 4 h 12 min
Bit rate mode : Variable
Bit rate : 1 956 kb/s
Maximum bit rate : 8 000 kb/s
Width : 1 280 pixels
Height : 720 pixels
Display aspect ratio : 16:9
Frame rate mode : Constant
Frame rate : 29.970 (30000/1001) FPS
Color space : YUV
Chroma subsampling : 4:2:0
Bit depth : 8 bits
Scan type : Progressive
Bits/(Pixel*Frame) : 0.071
Stream size : 3.44 GiB (91%)
Default : Yes
Forced : No

NOAH Kawasaki Go 

Audio
ID : 2
Format : AAC LC
Codec ID : A_AAC-2
Duration : 4 h 12 min
Bit rate : 192 kb/s
Channel(s) : 2 channels
Channel layout : L R
Sampling rate : 48.0 kHz
Frame rate : 46.875 FPS (1024 SPF)
Compression mode : Lossy
Delay relative to video : -33 ms
Stream size : 341 MiB (9%)
Language : English
Default : Yes
Forced : No

NOAH Kawasaki Go 

Complete name : NOAH.2021.08.15.Kawasaki.Go.2021.JAPANESE.1080p.WEB.h264-LATE.mkv
Format : Matroska
Format version : Version 4
File size : 8.52 GiB
Duration : 4 h 12 min
Overall bit rate mode : Variable
Overall bit rate : 4 838 kb/s

Video
ID : 1
Format : AVC
Duration : 4 h 12 min
Bit rate mode : Variable
Bit rate : 4 646 kb/s
Maximum bit rate : 12.0 Mb/s
Width : 1 920 pixels
Height : 1 080 pixels
Display aspect ratio : 16:9
Frame rate mode : Constant
Frame rate : 29.970 (30000/1001) FPS
Color space : YUV
Chroma subsampling : 4:2:0
Bit depth : 8 bits
Scan type : Progressive
Bits/(Pixel*Frame) : 0.075
Stream size : 8.18 GiB (96%)
Default : Yes
Forced : No

NOAH Kawasaki Go 

Audio
ID : 2
Format : AAC LC
Codec ID : A_AAC-2
Duration : 4 h 12 min
Bit rate : 192 kb/s
Channel(s) : 2 channels
Channel layout : L R
Sampling rate : 48.0 kHz
Frame rate : 46.875 FPS (1024 SPF)
Compression mode : Lossy
Delay relative to video : -33 ms
Stream size : 341 MiB (4%)
Language : Japanese
Default : Yes
Forced : No

Complete name : NOAH.2021.08.15.Kawasaki.Go.2021.JAPANESE.WEB.h264-LATE.mkv
Format : Matroska
Format version : Version 4
File size : 2.02 GiB
Duration : 4 h 12 min
Overall bit rate mode : Variable
Overall bit rate : 1 146 kb/s

NOAH Kawasaki Go 

Video
ID : 1
Format : AVC
Format/Info : Advanced Video
Duration : 4 h 12 min
Bit rate mode : Variable
Bit rate : 954 kb/s
Maximum bit rate : 4 000 kb/s
Width : 960 pixels
Height : 540 pixels
Display aspect ratio : 16:9
Frame rate mode : Constant
Frame rate : 29.970 (30000/1001) FPS
Color space : YUV
Chroma subsampling : 4:2:0
Bit depth : 8 bits
Scan type : Progressive
Bits/(Pixel*Frame) : 0.061
Stream size : 1.68 GiB (83%)
Default : Yes
Forced : No

NOAH Kawasaki Go 

Audio
ID : 2
Format : AAC LC
Codec ID : A_AAC-2
Duration : 4 h 12 min
Bit rate : 192 kb/s
Channel(s) : 2 channels
Channel layout : L R
Sampling rate : 48.0 kHz
Frame rate : 46.875 FPS (1024 SPF)
Compression mode : Lossy
Delay relative to video : -33 ms
Stream size : 341 MiB (17%)
Language : Japanese
Default : Yes
Forced : No

NOAH Kawasaki Go 

 

Complete name : NOAH.2021.08.15.Kawasaki.Go.2021.JAPANESE.720p.WEB.h264-LATE.mkv
Format : Matroska
Format version : Version 4
File size : 3.78 GiB
Duration : 4 h 12 min
Overall bit rate mode : Variable
Overall bit rate : 2 148 kb/s) 64-bit

Video
ID : 1
Format : AVC
Format/Info : Advanced Video
Duration : 4 h 12 min
Bit rate mode : Variable
Bit rate : 1 956 kb/s
Maximum bit rate : 8 000 kb/s
Width : 1 280 pixels
Height : 720 pixels
Display aspect ratio : 16:9
Frame rate mode : Constant
Frame rate : 29.970 (30000/1001) FPS
Color space : YUV
Chroma subsampling : 4:2:0
Bit depth : 8 bits
Scan type : Progressive
Bits/(Pixel*Frame) : 0.071
Stream size : 3.44 GiB (91%)
Default : Yes
Forced : No

NOAH Kawasaki Go 

Audio
ID : 2
Format : AAC LC
Codec ID : A_AAC-2
Duration : 4 h 12 min
Bit rate : 192 kb/s
Channel(s) : 2 channels
Channel layout : L R
Sampling rate : 48.0 kHz
Frame rate : 46.875 FPS (1024 SPF)
Compression mode : Lossy
Delay relative to video : -33 ms
Stream size : 341 MiB (9%)
Language : English
Default : Yes
Forced : No

NOAH Kawasaki Go 

Complete name : NOAH.2021.08.15.Kawasaki.Go.2021.JAPANESE.1080p.WEB.h264-LATE.mkv
Format : Matroska
Format version : Version 4
File size : 8.52 GiB
Duration : 4 h 12 min
Overall bit rate mode : Variable
Overall bit rate : 4 838 kb/s

Video
ID : 1
Format : AVC
Duration : 4 h 12 min
Bit rate mode : Variable
Bit rate : 4 646 kb/s
Maximum bit rate : 12.0 Mb/s
Width : 1 920 pixels
Height : 1 080 pixels
Display aspect ratio : 16:9
Frame rate mode : Constant
Frame rate : 29.970 (30000/1001) FPS
Color space : YUV
Chroma subsampling : 4:2:0
Bit depth : 8 bits
Scan type : Progressive
Bits/(Pixel*Frame) : 0.075
Stream size : 8.18 GiB (96%)
Default : Yes
Forced : No

NOAH Kawasaki Go 

Audio
ID : 2
Format : AAC LC
Codec ID : A_AAC-2
Duration : 4 h 12 min
Bit rate : 192 kb/s
Channel(s) : 2 channels
Channel layout : L R
Sampling rate : 48.0 kHz
Frame rate : 46.875 FPS (1024 SPF)
Compression mode : Lossy
Delay relative to video : -33 ms
Stream size : 341 MiB (4%)
Language : Japanese
Default : Yes
Forced : No

Complete name : NOAH.2021.08.15.Kawasaki.Go.2021.JAPANESE.WEB.h264-LATE.mkv
Format : Matroska
Format version : Version 4
File size : 2.02 GiB
Duration : 4 h 12 min
Overall bit rate mode : Variable
Overall bit rate : 1 146 kb/s

NOAH Kawasaki Go 

Video
ID : 1
Format : AVC
Format/Info : Advanced Video
Duration : 4 h 12 min
Bit rate mode : Variable
Bit rate : 954 kb/s
Maximum bit rate : 4 000 kb/s
Width : 960 pixels
Height : 540 pixels
Display aspect ratio : 16:9
Frame rate mode : Constant
Frame rate : 29.970 (30000/1001) FPS
Color space : YUV
Chroma subsampling : 4:2:0
Bit depth : 8 bits
Scan type : Progressive
Bits/(Pixel*Frame) : 0.061
Stream size : 1.68 GiB (83%)
Default : Yes
Forced : No

NOAH Kawasaki Go 

Audio
ID : 2
Format : AAC LC
Codec ID : A_AAC-2
Duration : 4 h 12 min
Bit rate : 192 kb/s
Channel(s) : 2 channels
Channel layout : L R
Sampling rate : 48.0 kHz
Frame rate : 46.875 FPS (1024 SPF)
Compression mode : Lossy
Delay relative to video : -33 ms
Stream size : 341 MiB (17%)
Language : Japanese
Default : Yes
Forced : No

NOAH Kawasaki Go 

 

Complete name : NOAH.2021.08.15.Kawasaki.Go.2021.JAPANESE.720p.WEB.h264-LATE.mkv
Format : Matroska
Format version : Version 4
File size : 3.78 GiB
Duration : 4 h 12 min
Overall bit rate mode : Variable
Overall bit rate : 2 148 kb/s) 64-bit

Video
ID : 1
Format : AVC
Format/Info : Advanced Video
Duration : 4 h 12 min
Bit rate mode : Variable
Bit rate : 1 956 kb/s
Maximum bit rate : 8 000 kb/s
Width : 1 280 pixels
Height : 720 pixels
Display aspect ratio : 16:9
Frame rate mode : Constant
Frame rate : 29.970 (30000/1001) FPS
Color space : YUV
Chroma subsampling : 4:2:0
Bit depth : 8 bits
Scan type : Progressive
Bits/(Pixel*Frame) : 0.071
Stream size : 3.44 GiB (91%)
Default : Yes
Forced : No

NOAH Kawasaki Go 

Audio
ID : 2
Format : AAC LC
Codec ID : A_AAC-2
Duration : 4 h 12 min
Bit rate : 192 kb/s
Channel(s) : 2 channels
Channel layout : L R
Sampling rate : 48.0 kHz
Frame rate : 46.875 FPS (1024 SPF)
Compression mode : Lossy
Delay relative to video : -33 ms
Stream size : 341 MiB (9%)
Language : English
Default : Yes
Forced : No

NOAH Kawasaki Go 

Complete name : NOAH.2021.08.15.Kawasaki.Go.2021.JAPANESE.1080p.WEB.h264-LATE.mkv
Format : Matroska
Format version : Version 4
File size : 8.52 GiB
Duration : 4 h 12 min
Overall bit rate mode : Variable
Overall bit rate : 4 838 kb/s

Video
ID : 1
Format : AVC
Duration : 4 h 12 min
Bit rate mode : Variable
Bit rate : 4 646 kb/s
Maximum bit rate : 12.0 Mb/s
Width : 1 920 pixels
Height : 1 080 pixels
Display aspect ratio : 16:9
Frame rate mode : Constant
Frame rate : 29.970 (30000/1001) FPS
Color space : YUV
Chroma subsampling : 4:2:0
Bit depth : 8 bits
Scan type : Progressive
Bits/(Pixel*Frame) : 0.075
Stream size : 8.18 GiB (96%)
Default : Yes
Forced : No

NOAH Kawasaki Go 

Audio
ID : 2
Format : AAC LC
Codec ID : A_AAC-2
Duration : 4 h 12 min
Bit rate : 192 kb/s
Channel(s) : 2 channels
Channel layout : L R
Sampling rate : 48.0 kHz
Frame rate : 46.875 FPS (1024 SPF)
Compression mode : Lossy
Delay relative to video : -33 ms
Stream size : 341 MiB (4%)
Language : Japanese
Default : Yes
Forced : No

Complete name : NOAH.2021.08.15.Kawasaki.Go.2021.JAPANESE.WEB.h264-LATE.mkv
Format : Matroska
Format version : Version 4
File size : 2.02 GiB
Duration : 4 h 12 min
Overall bit rate mode : Variable
Overall bit rate : 1 146 kb/s

NOAH Kawasaki Go 

Video
ID : 1
Format : AVC
Format/Info : Advanced Video
Duration : 4 h 12 min
Bit rate mode : Variable
Bit rate : 954 kb/s
Maximum bit rate : 4 000 kb/s
Width : 960 pixels
Height : 540 pixels
Display aspect ratio : 16:9
Frame rate mode : Constant
Frame rate : 29.970 (30000/1001) FPS
Color space : YUV
Chroma subsampling : 4:2:0
Bit depth : 8 bits
Scan type : Progressive
Bits/(Pixel*Frame) : 0.061
Stream size : 1.68 GiB (83%)
Default : Yes
Forced : No

NOAH Kawasaki Go 

Audio
ID : 2
Format : AAC LC
Codec ID : A_AAC-2
Duration : 4 h 12 min
Bit rate : 192 kb/s
Channel(s) : 2 channels
Channel layout : L R
Sampling rate : 48.0 kHz
Frame rate : 46.875 FPS (1024 SPF)
Compression mode : Lossy
Delay relative to video : -33 ms
Stream size : 341 MiB (17%)
Language : Japanese
Default : Yes
Forced : No

NOAH Kawasaki Go 

 

Complete name : NOAH.2021.08.15.Kawasaki.Go.2021.JAPANESE.720p.WEB.h264-LATE.mkv
Format : Matroska
Format version : Version 4
File size : 3.78 GiB
Duration : 4 h 12 min
Overall bit rate mode : Variable
Overall bit rate : 2 148 kb/s) 64-bit

Video
ID : 1
Format : AVC
Format/Info : Advanced Video
Duration : 4 h 12 min
Bit rate mode : Variable
Bit rate : 1 956 kb/s
Maximum bit rate : 8 000 kb/s
Width : 1 280 pixels
Height : 720 pixels
Display aspect ratio : 16:9
Frame rate mode : Constant
Frame rate : 29.970 (30000/1001) FPS
Color space : YUV
Chroma subsampling : 4:2:0
Bit depth : 8 bits
Scan type : Progressive
Bits/(Pixel*Frame) : 0.071
Stream size : 3.44 GiB (91%)
Default : Yes
Forced : No

NOAH Kawasaki Go 

Audio
ID : 2
Format : AAC LC
Codec ID : A_AAC-2
Duration : 4 h 12 min
Bit rate : 192 kb/s
Channel(s) : 2 channels
Channel layout : L R
Sampling rate : 48.0 kHz
Frame rate : 46.875 FPS (1024 SPF)
Compression mode : Lossy
Delay relative to video : -33 ms
Stream size : 341 MiB (9%)
Language : English
Default : Yes
Forced : No

NOAH Kawasaki Go 

Complete name : NOAH.2021.08.15.Kawasaki.Go.2021.JAPANESE.1080p.WEB.h264-LATE.mkv
Format : Matroska
Format version : Version 4
File size : 8.52 GiB
Duration : 4 h 12 min
Overall bit rate mode : Variable
Overall bit rate : 4 838 kb/s

Video
ID : 1
Format : AVC
Duration : 4 h 12 min
Bit rate mode : Variable
Bit rate : 4 646 kb/s
Maximum bit rate : 12.0 Mb/s
Width : 1 920 pixels
Height : 1 080 pixels
Display aspect ratio : 16:9
Frame rate mode : Constant
Frame rate : 29.970 (30000/1001) FPS
Color space : YUV
Chroma subsampling : 4:2:0
Bit depth : 8 bits
Scan type : Progressive
Bits/(Pixel*Frame) : 0.075
Stream size : 8.18 GiB (96%)
Default : Yes
Forced : No

NOAH Kawasaki Go 

Audio
ID : 2
Format : AAC LC
Codec ID : A_AAC-2
Duration : 4 h 12 min
Bit rate : 192 kb/s
Channel(s) : 2 channels
Channel layout : L R
Sampling rate : 48.0 kHz
Frame rate : 46.875 FPS (1024 SPF)
Compression mode : Lossy
Delay relative to video : -33 ms
Stream size : 341 MiB (4%)
Language : Japanese
Default : Yes
Forced : No

Complete name : NOAH.2021.08.15.Kawasaki.Go.2021.JAPANESE.WEB.h264-LATE.mkv
Format : Matroska
Format version : Version 4
File size : 2.02 GiB
Duration : 4 h 12 min
Overall bit rate mode : Variable
Overall bit rate : 1 146 kb/s

NOAH Kawasaki Go 

Video
ID : 1
Format : AVC
Format/Info : Advanced Video
Duration : 4 h 12 min
Bit rate mode : Variable
Bit rate : 954 kb/s
Maximum bit rate : 4 000 kb/s
Width : 960 pixels
Height : 540 pixels
Display aspect ratio : 16:9
Frame rate mode : Constant
Frame rate : 29.970 (30000/1001) FPS
Color space : YUV
Chroma subsampling : 4:2:0
Bit depth : 8 bits
Scan type : Progressive
Bits/(Pixel*Frame) : 0.061
Stream size : 1.68 GiB (83%)
Default : Yes
Forced : No

NOAH Kawasaki Go 

Audio
ID : 2
Format : AAC LC
Codec ID : A_AAC-2
Duration : 4 h 12 min
Bit rate : 192 kb/s
Channel(s) : 2 channels
Channel layout : L R
Sampling rate : 48.0 kHz
Frame rate : 46.875 FPS (1024 SPF)
Compression mode : Lossy
Delay relative to video : -33 ms
Stream size : 341 MiB (17%)
Language : Japanese
Default : Yes
Forced : No

NOAH Kawasaki Go 

 

 

 

[collapse]

 

 

https://dx-tv.com/

Leave a Reply

Your email address will not be published. Required fields are marked *

This site uses Akismet to reduce spam. Learn how your comment data is processed.