SEAdLINNNG 6th Anniversary 2021 08 19 Online Free

SEAdLINNNG 6th Anniversary 2021 08 19 Tokyo Online Free Replay DX-TV

Contents show

SEAdLINNNG 6th Anniversary

 SEAdLINNNG 6th Anniversary

 

 

 

Download Links with premium High Speed
 

 


 

Dopapk

 

 

Show Links

 

 

http://shrt10.com/QXwPg48Q

 

[collapse]

 

 

 

 

Nitroflare

 

 

Show Links

 

 

http://shrt10.com/nrmfp

 

 

[collapse]

 

 

Rapidgator

 

 

Show Links

 

 

http://shrt10.com/0avW1

 

 

[collapse]

 

 

 

Uploaded
 

 

Show Links

 

 

http://shrt10.com/1GtvsE4g

 

 

[collapse]

 

 

 

 

 

Watch online

 

Server 1

 

 

 

 

SEAdLINNNG 6th Anniversary

 

 

 

 

Server-2

 

 

 

 

watch now

 

 

 

|Server-3

 

 

 

 

watch now

 

 

Uploaded By Site DX-TV.com

 

 

Show Info This Show

 

SEAdLINNNG 6th Anniversary

Complete name : 2021.08.19.SEAdLINNNG.6th.Anniversary.Tokyo.Korakuen.Hall.720p.mp4
Format : MPEG-4
Format profile : Base Media
Codec ID : isom
File size : 2.27 GiB
Duration : 2 h 31 min
Overall bit rate mode : Variable
Overall bit rate : 2 138 kb/s

Video
ID : 1
Format : AVC
Duration : 2 h 31 min
Bit rate mode : Variable
Bit rate : 2 002 kb/s
Maximum bit rate : 6 144 kb/s
Width : 1 280 pixels
Height : 720 pixels
Display aspect ratio : 16:9
Frame rate mode : Constant
Frame rate : 30.000 FPS
Color space : YUV
Chroma subsampling : 4:2:0
Bit depth : 8 bits
Scan type : Progressive
Bits/(Pixel*Frame) : 0.072
Stream size : 2.12 GiB (94%)
Codec configuration box : avcC

SEAdLINNNG 6th Anniversary

Audio
ID : 2
Format : AAC LCLow Complexity
Codec ID : mp4a-40-2
Duration : 2 h 31 min
Duration_LastFrame : -2 ms
Bit rate mode : Constant
Bit rate : 129 kb/s
Channel(s) : 2 channels
Channel layout : L R
Sampling rate : 44.1 kHz
Frame rate : 43.066 FPS (1024 SPF)
Compression mode : Lossy
Stream size : 140 MiB (6%)
Default : Yes
Alternate group : 1

SEAdLINNNG 6th Anniversary

Complete name : 2021.08.19.SEAdLINNNG.6th.Anniversary.Tokyo.Korakuen.Hall.720p.mp4
Format : MPEG-4
Format profile : Base Media
Codec ID : isom
File size : 2.27 GiB
Duration : 2 h 31 min
Overall bit rate mode : Variable
Overall bit rate : 2 138 kb/s

Video
ID : 1
Format : AVC
Duration : 2 h 31 min
Bit rate mode : Variable
Bit rate : 2 002 kb/s
Maximum bit rate : 6 144 kb/s
Width : 1 280 pixels
Height : 720 pixels
Display aspect ratio : 16:9
Frame rate mode : Constant
Frame rate : 30.000 FPS
Color space : YUV
Chroma subsampling : 4:2:0
Bit depth : 8 bits
Scan type : Progressive
Bits/(Pixel*Frame) : 0.072
Stream size : 2.12 GiB (94%)
Codec configuration box : avcC

SEAdLINNNG 6th Anniversary

Audio
ID : 2
Format : AAC LCLow Complexity
Codec ID : mp4a-40-2
Duration : 2 h 31 min
Duration_LastFrame : -2 ms
Bit rate mode : Constant
Bit rate : 129 kb/s
Channel(s) : 2 channels
Channel layout : L R
Sampling rate : 44.1 kHz
Frame rate : 43.066 FPS (1024 SPF)
Compression mode : Lossy
Stream size : 140 MiB (6%)
Default : Yes
Alternate group : 1

SEAdLINNNG 6th Anniversary

Complete name : 2021.08.19.SEAdLINNNG.6th.Anniversary.Tokyo.Korakuen.Hall.720p.mp4
Format : MPEG-4
Format profile : Base Media
Codec ID : isom
File size : 2.27 GiB
Duration : 2 h 31 min
Overall bit rate mode : Variable
Overall bit rate : 2 138 kb/s

Video
ID : 1
Format : AVC
Duration : 2 h 31 min
Bit rate mode : Variable
Bit rate : 2 002 kb/s
Maximum bit rate : 6 144 kb/s
Width : 1 280 pixels
Height : 720 pixels
Display aspect ratio : 16:9
Frame rate mode : Constant
Frame rate : 30.000 FPS
Color space : YUV
Chroma subsampling : 4:2:0
Bit depth : 8 bits
Scan type : Progressive
Bits/(Pixel*Frame) : 0.072
Stream size : 2.12 GiB (94%)
Codec configuration box : avcC

SEAdLINNNG 6th Anniversary

Audio
ID : 2
Format : AAC LCLow Complexity
Codec ID : mp4a-40-2
Duration : 2 h 31 min
Duration_LastFrame : -2 ms
Bit rate mode : Constant
Bit rate : 129 kb/s
Channel(s) : 2 channels
Channel layout : L R
Sampling rate : 44.1 kHz
Frame rate : 43.066 FPS (1024 SPF)
Compression mode : Lossy
Stream size : 140 MiB (6%)
Default : Yes
Alternate group : 1

SEAdLINNNG 6th Anniversary

Complete name : 2021.08.19.SEAdLINNNG.6th.Anniversary.Tokyo.Korakuen.Hall.720p.mp4
Format : MPEG-4
Format profile : Base Media
Codec ID : isom
File size : 2.27 GiB
Duration : 2 h 31 min
Overall bit rate mode : Variable
Overall bit rate : 2 138 kb/s

Video
ID : 1
Format : AVC
Duration : 2 h 31 min
Bit rate mode : Variable
Bit rate : 2 002 kb/s
Maximum bit rate : 6 144 kb/s
Width : 1 280 pixels
Height : 720 pixels
Display aspect ratio : 16:9
Frame rate mode : Constant
Frame rate : 30.000 FPS
Color space : YUV
Chroma subsampling : 4:2:0
Bit depth : 8 bits
Scan type : Progressive
Bits/(Pixel*Frame) : 0.072
Stream size : 2.12 GiB (94%)
Codec configuration box : avcC

SEAdLINNNG 6th Anniversary

Audio
ID : 2
Format : AAC LCLow Complexity
Codec ID : mp4a-40-2
Duration : 2 h 31 min
Duration_LastFrame : -2 ms
Bit rate mode : Constant
Bit rate : 129 kb/s
Channel(s) : 2 channels
Channel layout : L R
Sampling rate : 44.1 kHz
Frame rate : 43.066 FPS (1024 SPF)
Compression mode : Lossy
Stream size : 140 MiB (6%)
Default : Yes
Alternate group : 1

SEAdLINNNG 6th Anniversary

Complete name : 2021.08.19.SEAdLINNNG.6th.Anniversary.Tokyo.Korakuen.Hall.720p.mp4
Format : MPEG-4
Format profile : Base Media
Codec ID : isom
File size : 2.27 GiB
Duration : 2 h 31 min
Overall bit rate mode : Variable
Overall bit rate : 2 138 kb/s

Video
ID : 1
Format : AVC
Duration : 2 h 31 min
Bit rate mode : Variable
Bit rate : 2 002 kb/s
Maximum bit rate : 6 144 kb/s
Width : 1 280 pixels
Height : 720 pixels
Display aspect ratio : 16:9
Frame rate mode : Constant
Frame rate : 30.000 FPS
Color space : YUV
Chroma subsampling : 4:2:0
Bit depth : 8 bits
Scan type : Progressive
Bits/(Pixel*Frame) : 0.072
Stream size : 2.12 GiB (94%)
Codec configuration box : avcC

SEAdLINNNG 6th Anniversary

Audio
ID : 2
Format : AAC LCLow Complexity
Codec ID : mp4a-40-2
Duration : 2 h 31 min
Duration_LastFrame : -2 ms
Bit rate mode : Constant
Bit rate : 129 kb/s
Channel(s) : 2 channels
Channel layout : L R
Sampling rate : 44.1 kHz
Frame rate : 43.066 FPS (1024 SPF)
Compression mode : Lossy
Stream size : 140 MiB (6%)
Default : Yes
Alternate group : 1

SEAdLINNNG 6th Anniversary

Complete name : 2021.08.19.SEAdLINNNG.6th.Anniversary.Tokyo.Korakuen.Hall.720p.mp4
Format : MPEG-4
Format profile : Base Media
Codec ID : isom
File size : 2.27 GiB
Duration : 2 h 31 min
Overall bit rate mode : Variable
Overall bit rate : 2 138 kb/s

Video
ID : 1
Format : AVC
Duration : 2 h 31 min
Bit rate mode : Variable
Bit rate : 2 002 kb/s
Maximum bit rate : 6 144 kb/s
Width : 1 280 pixels
Height : 720 pixels
Display aspect ratio : 16:9
Frame rate mode : Constant
Frame rate : 30.000 FPS
Color space : YUV
Chroma subsampling : 4:2:0
Bit depth : 8 bits
Scan type : Progressive
Bits/(Pixel*Frame) : 0.072
Stream size : 2.12 GiB (94%)
Codec configuration box : avcC

SEAdLINNNG 6th Anniversary

Audio
ID : 2
Format : AAC LCLow Complexity
Codec ID : mp4a-40-2
Duration : 2 h 31 min
Duration_LastFrame : -2 ms
Bit rate mode : Constant
Bit rate : 129 kb/s
Channel(s) : 2 channels
Channel layout : L R
Sampling rate : 44.1 kHz
Frame rate : 43.066 FPS (1024 SPF)
Compression mode : Lossy
Stream size : 140 MiB (6%)
Default : Yes
Alternate group : 1

SEAdLINNNG 6th Anniversary

Complete name : 2021.08.19.SEAdLINNNG.6th.Anniversary.Tokyo.Korakuen.Hall.720p.mp4
Format : MPEG-4
Format profile : Base Media
Codec ID : isom
File size : 2.27 GiB
Duration : 2 h 31 min
Overall bit rate mode : Variable
Overall bit rate : 2 138 kb/s

Video
ID : 1
Format : AVC
Duration : 2 h 31 min
Bit rate mode : Variable
Bit rate : 2 002 kb/s
Maximum bit rate : 6 144 kb/s
Width : 1 280 pixels
Height : 720 pixels
Display aspect ratio : 16:9
Frame rate mode : Constant
Frame rate : 30.000 FPS
Color space : YUV
Chroma subsampling : 4:2:0
Bit depth : 8 bits
Scan type : Progressive
Bits/(Pixel*Frame) : 0.072
Stream size : 2.12 GiB (94%)
Codec configuration box : avcC

SEAdLINNNG 6th Anniversary

Audio
ID : 2
Format : AAC LCLow Complexity
Codec ID : mp4a-40-2
Duration : 2 h 31 min
Duration_LastFrame : -2 ms
Bit rate mode : Constant
Bit rate : 129 kb/s
Channel(s) : 2 channels
Channel layout : L R
Sampling rate : 44.1 kHz
Frame rate : 43.066 FPS (1024 SPF)
Compression mode : Lossy
Stream size : 140 MiB (6%)
Default : Yes
Alternate group : 1

SEAdLINNNG 6th Anniversary

Complete name : 2021.08.19.SEAdLINNNG.6th.Anniversary.Tokyo.Korakuen.Hall.720p.mp4
Format : MPEG-4
Format profile : Base Media
Codec ID : isom
File size : 2.27 GiB
Duration : 2 h 31 min
Overall bit rate mode : Variable
Overall bit rate : 2 138 kb/s

Video
ID : 1
Format : AVC
Duration : 2 h 31 min
Bit rate mode : Variable
Bit rate : 2 002 kb/s
Maximum bit rate : 6 144 kb/s
Width : 1 280 pixels
Height : 720 pixels
Display aspect ratio : 16:9
Frame rate mode : Constant
Frame rate : 30.000 FPS
Color space : YUV
Chroma subsampling : 4:2:0
Bit depth : 8 bits
Scan type : Progressive
Bits/(Pixel*Frame) : 0.072
Stream size : 2.12 GiB (94%)
Codec configuration box : avcC

SEAdLINNNG 6th Anniversary

Audio
ID : 2
Format : AAC LCLow Complexity
Codec ID : mp4a-40-2
Duration : 2 h 31 min
Duration_LastFrame : -2 ms
Bit rate mode : Constant
Bit rate : 129 kb/s
Channel(s) : 2 channels
Channel layout : L R
Sampling rate : 44.1 kHz
Frame rate : 43.066 FPS (1024 SPF)
Compression mode : Lossy
Stream size : 140 MiB (6%)
Default : Yes
Alternate group : 1

SEAdLINNNG 6th Anniversary

Complete name : 2021.08.19.SEAdLINNNG.6th.Anniversary.Tokyo.Korakuen.Hall.720p.mp4
Format : MPEG-4
Format profile : Base Media
Codec ID : isom
File size : 2.27 GiB
Duration : 2 h 31 min
Overall bit rate mode : Variable
Overall bit rate : 2 138 kb/s

Video
ID : 1
Format : AVC
Duration : 2 h 31 min
Bit rate mode : Variable
Bit rate : 2 002 kb/s
Maximum bit rate : 6 144 kb/s
Width : 1 280 pixels
Height : 720 pixels
Display aspect ratio : 16:9
Frame rate mode : Constant
Frame rate : 30.000 FPS
Color space : YUV
Chroma subsampling : 4:2:0
Bit depth : 8 bits
Scan type : Progressive
Bits/(Pixel*Frame) : 0.072
Stream size : 2.12 GiB (94%)
Codec configuration box : avcC

SEAdLINNNG 6th Anniversary

Audio
ID : 2
Format : AAC LCLow Complexity
Codec ID : mp4a-40-2
Duration : 2 h 31 min
Duration_LastFrame : -2 ms
Bit rate mode : Constant
Bit rate : 129 kb/s
Channel(s) : 2 channels
Channel layout : L R
Sampling rate : 44.1 kHz
Frame rate : 43.066 FPS (1024 SPF)
Compression mode : Lossy
Stream size : 140 MiB (6%)
Default : Yes
Alternate group : 1

SEAdLINNNG 6th Anniversary

Complete name : 2021.08.19.SEAdLINNNG.6th.Anniversary.Tokyo.Korakuen.Hall.720p.mp4
Format : MPEG-4
Format profile : Base Media
Codec ID : isom
File size : 2.27 GiB
Duration : 2 h 31 min
Overall bit rate mode : Variable
Overall bit rate : 2 138 kb/s

Video
ID : 1
Format : AVC
Duration : 2 h 31 min
Bit rate mode : Variable
Bit rate : 2 002 kb/s
Maximum bit rate : 6 144 kb/s
Width : 1 280 pixels
Height : 720 pixels
Display aspect ratio : 16:9
Frame rate mode : Constant
Frame rate : 30.000 FPS
Color space : YUV
Chroma subsampling : 4:2:0
Bit depth : 8 bits
Scan type : Progressive
Bits/(Pixel*Frame) : 0.072
Stream size : 2.12 GiB (94%)
Codec configuration box : avcC

SEAdLINNNG 6th Anniversary

Audio
ID : 2
Format : AAC LCLow Complexity
Codec ID : mp4a-40-2
Duration : 2 h 31 min
Duration_LastFrame : -2 ms
Bit rate mode : Constant
Bit rate : 129 kb/s
Channel(s) : 2 channels
Channel layout : L R
Sampling rate : 44.1 kHz
Frame rate : 43.066 FPS (1024 SPF)
Compression mode : Lossy
Stream size : 140 MiB (6%)
Default : Yes
Alternate group : 1

SEAdLINNNG 6th Anniversary

Complete name : 2021.08.19.SEAdLINNNG.6th.Anniversary.Tokyo.Korakuen.Hall.720p.mp4
Format : MPEG-4
Format profile : Base Media
Codec ID : isom
File size : 2.27 GiB
Duration : 2 h 31 min
Overall bit rate mode : Variable
Overall bit rate : 2 138 kb/s

Video
ID : 1
Format : AVC
Duration : 2 h 31 min
Bit rate mode : Variable
Bit rate : 2 002 kb/s
Maximum bit rate : 6 144 kb/s
Width : 1 280 pixels
Height : 720 pixels
Display aspect ratio : 16:9
Frame rate mode : Constant
Frame rate : 30.000 FPS
Color space : YUV
Chroma subsampling : 4:2:0
Bit depth : 8 bits
Scan type : Progressive
Bits/(Pixel*Frame) : 0.072
Stream size : 2.12 GiB (94%)
Codec configuration box : avcC

SEAdLINNNG 6th Anniversary

Audio
ID : 2
Format : AAC LCLow Complexity
Codec ID : mp4a-40-2
Duration : 2 h 31 min
Duration_LastFrame : -2 ms
Bit rate mode : Constant
Bit rate : 129 kb/s
Channel(s) : 2 channels
Channel layout : L R
Sampling rate : 44.1 kHz
Frame rate : 43.066 FPS (1024 SPF)
Compression mode : Lossy
Stream size : 140 MiB (6%)
Default : Yes
Alternate group : 1

SEAdLINNNG 6th Anniversary

Complete name : 2021.08.19.SEAdLINNNG.6th.Anniversary.Tokyo.Korakuen.Hall.720p.mp4
Format : MPEG-4
Format profile : Base Media
Codec ID : isom
File size : 2.27 GiB
Duration : 2 h 31 min
Overall bit rate mode : Variable
Overall bit rate : 2 138 kb/s

Video
ID : 1
Format : AVC
Duration : 2 h 31 min
Bit rate mode : Variable
Bit rate : 2 002 kb/s
Maximum bit rate : 6 144 kb/s
Width : 1 280 pixels
Height : 720 pixels
Display aspect ratio : 16:9
Frame rate mode : Constant
Frame rate : 30.000 FPS
Color space : YUV
Chroma subsampling : 4:2:0
Bit depth : 8 bits
Scan type : Progressive
Bits/(Pixel*Frame) : 0.072
Stream size : 2.12 GiB (94%)
Codec configuration box : avcC

SEAdLINNNG 6th Anniversary

Audio
ID : 2
Format : AAC LCLow Complexity
Codec ID : mp4a-40-2
Duration : 2 h 31 min
Duration_LastFrame : -2 ms
Bit rate mode : Constant
Bit rate : 129 kb/s
Channel(s) : 2 channels
Channel layout : L R
Sampling rate : 44.1 kHz
Frame rate : 43.066 FPS (1024 SPF)
Compression mode : Lossy
Stream size : 140 MiB (6%)
Default : Yes
Alternate group : 1

SEAdLINNNG 6th Anniversary

Complete name : 2021.08.19.SEAdLINNNG.6th.Anniversary.Tokyo.Korakuen.Hall.720p.mp4
Format : MPEG-4
Format profile : Base Media
Codec ID : isom
File size : 2.27 GiB
Duration : 2 h 31 min
Overall bit rate mode : Variable
Overall bit rate : 2 138 kb/s

Video
ID : 1
Format : AVC
Duration : 2 h 31 min
Bit rate mode : Variable
Bit rate : 2 002 kb/s
Maximum bit rate : 6 144 kb/s
Width : 1 280 pixels
Height : 720 pixels
Display aspect ratio : 16:9
Frame rate mode : Constant
Frame rate : 30.000 FPS
Color space : YUV
Chroma subsampling : 4:2:0
Bit depth : 8 bits
Scan type : Progressive
Bits/(Pixel*Frame) : 0.072
Stream size : 2.12 GiB (94%)
Codec configuration box : avcC

SEAdLINNNG 6th Anniversary

Audio
ID : 2
Format : AAC LCLow Complexity
Codec ID : mp4a-40-2
Duration : 2 h 31 min
Duration_LastFrame : -2 ms
Bit rate mode : Constant
Bit rate : 129 kb/s
Channel(s) : 2 channels
Channel layout : L R
Sampling rate : 44.1 kHz
Frame rate : 43.066 FPS (1024 SPF)
Compression mode : Lossy
Stream size : 140 MiB (6%)
Default : Yes
Alternate group : 1

SEAdLINNNG 6th Anniversary

Complete name : 2021.08.19.SEAdLINNNG.6th.Anniversary.Tokyo.Korakuen.Hall.720p.mp4
Format : MPEG-4
Format profile : Base Media
Codec ID : isom
File size : 2.27 GiB
Duration : 2 h 31 min
Overall bit rate mode : Variable
Overall bit rate : 2 138 kb/s

Video
ID : 1
Format : AVC
Duration : 2 h 31 min
Bit rate mode : Variable
Bit rate : 2 002 kb/s
Maximum bit rate : 6 144 kb/s
Width : 1 280 pixels
Height : 720 pixels
Display aspect ratio : 16:9
Frame rate mode : Constant
Frame rate : 30.000 FPS
Color space : YUV
Chroma subsampling : 4:2:0
Bit depth : 8 bits
Scan type : Progressive
Bits/(Pixel*Frame) : 0.072
Stream size : 2.12 GiB (94%)
Codec configuration box : avcC

SEAdLINNNG 6th Anniversary

Audio
ID : 2
Format : AAC LCLow Complexity
Codec ID : mp4a-40-2
Duration : 2 h 31 min
Duration_LastFrame : -2 ms
Bit rate mode : Constant
Bit rate : 129 kb/s
Channel(s) : 2 channels
Channel layout : L R
Sampling rate : 44.1 kHz
Frame rate : 43.066 FPS (1024 SPF)
Compression mode : Lossy
Stream size : 140 MiB (6%)
Default : Yes
Alternate group : 1

SEAdLINNNG 6th Anniversary

Complete name : 2021.08.19.SEAdLINNNG.6th.Anniversary.Tokyo.Korakuen.Hall.720p.mp4
Format : MPEG-4
Format profile : Base Media
Codec ID : isom
File size : 2.27 GiB
Duration : 2 h 31 min
Overall bit rate mode : Variable
Overall bit rate : 2 138 kb/s

Video
ID : 1
Format : AVC
Duration : 2 h 31 min
Bit rate mode : Variable
Bit rate : 2 002 kb/s
Maximum bit rate : 6 144 kb/s
Width : 1 280 pixels
Height : 720 pixels
Display aspect ratio : 16:9
Frame rate mode : Constant
Frame rate : 30.000 FPS
Color space : YUV
Chroma subsampling : 4:2:0
Bit depth : 8 bits
Scan type : Progressive
Bits/(Pixel*Frame) : 0.072
Stream size : 2.12 GiB (94%)
Codec configuration box : avcC

SEAdLINNNG 6th Anniversary

Audio
ID : 2
Format : AAC LCLow Complexity
Codec ID : mp4a-40-2
Duration : 2 h 31 min
Duration_LastFrame : -2 ms
Bit rate mode : Constant
Bit rate : 129 kb/s
Channel(s) : 2 channels
Channel layout : L R
Sampling rate : 44.1 kHz
Frame rate : 43.066 FPS (1024 SPF)
Compression mode : Lossy
Stream size : 140 MiB (6%)
Default : Yes
Alternate group : 1

SEAdLINNNG 6th Anniversary

Complete name : 2021.08.19.SEAdLINNNG.6th.Anniversary.Tokyo.Korakuen.Hall.720p.mp4
Format : MPEG-4
Format profile : Base Media
Codec ID : isom
File size : 2.27 GiB
Duration : 2 h 31 min
Overall bit rate mode : Variable
Overall bit rate : 2 138 kb/s

Video
ID : 1
Format : AVC
Duration : 2 h 31 min
Bit rate mode : Variable
Bit rate : 2 002 kb/s
Maximum bit rate : 6 144 kb/s
Width : 1 280 pixels
Height : 720 pixels
Display aspect ratio : 16:9
Frame rate mode : Constant
Frame rate : 30.000 FPS
Color space : YUV
Chroma subsampling : 4:2:0
Bit depth : 8 bits
Scan type : Progressive
Bits/(Pixel*Frame) : 0.072
Stream size : 2.12 GiB (94%)
Codec configuration box : avcC

SEAdLINNNG 6th Anniversary

Audio
ID : 2
Format : AAC LCLow Complexity
Codec ID : mp4a-40-2
Duration : 2 h 31 min
Duration_LastFrame : -2 ms
Bit rate mode : Constant
Bit rate : 129 kb/s
Channel(s) : 2 channels
Channel layout : L R
Sampling rate : 44.1 kHz
Frame rate : 43.066 FPS (1024 SPF)
Compression mode : Lossy
Stream size : 140 MiB (6%)
Default : Yes
Alternate group : 1

SEAdLINNNG 6th Anniversary

Complete name : 2021.08.19.SEAdLINNNG.6th.Anniversary.Tokyo.Korakuen.Hall.720p.mp4
Format : MPEG-4
Format profile : Base Media
Codec ID : isom
File size : 2.27 GiB
Duration : 2 h 31 min
Overall bit rate mode : Variable
Overall bit rate : 2 138 kb/s

Video
ID : 1
Format : AVC
Duration : 2 h 31 min
Bit rate mode : Variable
Bit rate : 2 002 kb/s
Maximum bit rate : 6 144 kb/s
Width : 1 280 pixels
Height : 720 pixels
Display aspect ratio : 16:9
Frame rate mode : Constant
Frame rate : 30.000 FPS
Color space : YUV
Chroma subsampling : 4:2:0
Bit depth : 8 bits
Scan type : Progressive
Bits/(Pixel*Frame) : 0.072
Stream size : 2.12 GiB (94%)
Codec configuration box : avcC

SEAdLINNNG 6th Anniversary

Audio
ID : 2
Format : AAC LCLow Complexity
Codec ID : mp4a-40-2
Duration : 2 h 31 min
Duration_LastFrame : -2 ms
Bit rate mode : Constant
Bit rate : 129 kb/s
Channel(s) : 2 channels
Channel layout : L R
Sampling rate : 44.1 kHz
Frame rate : 43.066 FPS (1024 SPF)
Compression mode : Lossy
Stream size : 140 MiB (6%)
Default : Yes
Alternate group : 1

SEAdLINNNG 6th Anniversary

Complete name : 2021.08.19.SEAdLINNNG.6th.Anniversary.Tokyo.Korakuen.Hall.720p.mp4
Format : MPEG-4
Format profile : Base Media
Codec ID : isom
File size : 2.27 GiB
Duration : 2 h 31 min
Overall bit rate mode : Variable
Overall bit rate : 2 138 kb/s

Video
ID : 1
Format : AVC
Duration : 2 h 31 min
Bit rate mode : Variable
Bit rate : 2 002 kb/s
Maximum bit rate : 6 144 kb/s
Width : 1 280 pixels
Height : 720 pixels
Display aspect ratio : 16:9
Frame rate mode : Constant
Frame rate : 30.000 FPS
Color space : YUV
Chroma subsampling : 4:2:0
Bit depth : 8 bits
Scan type : Progressive
Bits/(Pixel*Frame) : 0.072
Stream size : 2.12 GiB (94%)
Codec configuration box : avcC

SEAdLINNNG 6th Anniversary

Audio
ID : 2
Format : AAC LCLow Complexity
Codec ID : mp4a-40-2
Duration : 2 h 31 min
Duration_LastFrame : -2 ms
Bit rate mode : Constant
Bit rate : 129 kb/s
Channel(s) : 2 channels
Channel layout : L R
Sampling rate : 44.1 kHz
Frame rate : 43.066 FPS (1024 SPF)
Compression mode : Lossy
Stream size : 140 MiB (6%)
Default : Yes
Alternate group : 1

SEAdLINNNG 6th Anniversary

Complete name : 2021.08.19.SEAdLINNNG.6th.Anniversary.Tokyo.Korakuen.Hall.720p.mp4
Format : MPEG-4
Format profile : Base Media
Codec ID : isom
File size : 2.27 GiB
Duration : 2 h 31 min
Overall bit rate mode : Variable
Overall bit rate : 2 138 kb/s

Video
ID : 1
Format : AVC
Duration : 2 h 31 min
Bit rate mode : Variable
Bit rate : 2 002 kb/s
Maximum bit rate : 6 144 kb/s
Width : 1 280 pixels
Height : 720 pixels
Display aspect ratio : 16:9
Frame rate mode : Constant
Frame rate : 30.000 FPS
Color space : YUV
Chroma subsampling : 4:2:0
Bit depth : 8 bits
Scan type : Progressive
Bits/(Pixel*Frame) : 0.072
Stream size : 2.12 GiB (94%)
Codec configuration box : avcC

SEAdLINNNG 6th Anniversary

Audio
ID : 2
Format : AAC LCLow Complexity
Codec ID : mp4a-40-2
Duration : 2 h 31 min
Duration_LastFrame : -2 ms
Bit rate mode : Constant
Bit rate : 129 kb/s
Channel(s) : 2 channels
Channel layout : L R
Sampling rate : 44.1 kHz
Frame rate : 43.066 FPS (1024 SPF)
Compression mode : Lossy
Stream size : 140 MiB (6%)
Default : Yes
Alternate group : 1

SEAdLINNNG 6th Anniversary

Complete name : 2021.08.19.SEAdLINNNG.6th.Anniversary.Tokyo.Korakuen.Hall.720p.mp4
Format : MPEG-4
Format profile : Base Media
Codec ID : isom
File size : 2.27 GiB
Duration : 2 h 31 min
Overall bit rate mode : Variable
Overall bit rate : 2 138 kb/s

Video
ID : 1
Format : AVC
Duration : 2 h 31 min
Bit rate mode : Variable
Bit rate : 2 002 kb/s
Maximum bit rate : 6 144 kb/s
Width : 1 280 pixels
Height : 720 pixels
Display aspect ratio : 16:9
Frame rate mode : Constant
Frame rate : 30.000 FPS
Color space : YUV
Chroma subsampling : 4:2:0
Bit depth : 8 bits
Scan type : Progressive
Bits/(Pixel*Frame) : 0.072
Stream size : 2.12 GiB (94%)
Codec configuration box : avcC

SEAdLINNNG 6th Anniversary

Audio
ID : 2
Format : AAC LCLow Complexity
Codec ID : mp4a-40-2
Duration : 2 h 31 min
Duration_LastFrame : -2 ms
Bit rate mode : Constant
Bit rate : 129 kb/s
Channel(s) : 2 channels
Channel layout : L R
Sampling rate : 44.1 kHz
Frame rate : 43.066 FPS (1024 SPF)
Compression mode : Lossy
Stream size : 140 MiB (6%)
Default : Yes
Alternate group : 1

SEAdLINNNG 6th Anniversary

Complete name : 2021.08.19.SEAdLINNNG.6th.Anniversary.Tokyo.Korakuen.Hall.720p.mp4
Format : MPEG-4
Format profile : Base Media
Codec ID : isom
File size : 2.27 GiB
Duration : 2 h 31 min
Overall bit rate mode : Variable
Overall bit rate : 2 138 kb/s

Video
ID : 1
Format : AVC
Duration : 2 h 31 min
Bit rate mode : Variable
Bit rate : 2 002 kb/s
Maximum bit rate : 6 144 kb/s
Width : 1 280 pixels
Height : 720 pixels
Display aspect ratio : 16:9
Frame rate mode : Constant
Frame rate : 30.000 FPS
Color space : YUV
Chroma subsampling : 4:2:0
Bit depth : 8 bits
Scan type : Progressive
Bits/(Pixel*Frame) : 0.072
Stream size : 2.12 GiB (94%)
Codec configuration box : avcC

SEAdLINNNG 6th Anniversary

Audio
ID : 2
Format : AAC LCLow Complexity
Codec ID : mp4a-40-2
Duration : 2 h 31 min
Duration_LastFrame : -2 ms
Bit rate mode : Constant
Bit rate : 129 kb/s
Channel(s) : 2 channels
Channel layout : L R
Sampling rate : 44.1 kHz
Frame rate : 43.066 FPS (1024 SPF)
Compression mode : Lossy
Stream size : 140 MiB (6%)
Default : Yes
Alternate group : 1

SEAdLINNNG 6th Anniversary

Complete name : 2021.08.19.SEAdLINNNG.6th.Anniversary.Tokyo.Korakuen.Hall.720p.mp4
Format : MPEG-4
Format profile : Base Media
Codec ID : isom
File size : 2.27 GiB
Duration : 2 h 31 min
Overall bit rate mode : Variable
Overall bit rate : 2 138 kb/s

Video
ID : 1
Format : AVC
Duration : 2 h 31 min
Bit rate mode : Variable
Bit rate : 2 002 kb/s
Maximum bit rate : 6 144 kb/s
Width : 1 280 pixels
Height : 720 pixels
Display aspect ratio : 16:9
Frame rate mode : Constant
Frame rate : 30.000 FPS
Color space : YUV
Chroma subsampling : 4:2:0
Bit depth : 8 bits
Scan type : Progressive
Bits/(Pixel*Frame) : 0.072
Stream size : 2.12 GiB (94%)
Codec configuration box : avcC

SEAdLINNNG 6th Anniversary

Audio
ID : 2
Format : AAC LCLow Complexity
Codec ID : mp4a-40-2
Duration : 2 h 31 min
Duration_LastFrame : -2 ms
Bit rate mode : Constant
Bit rate : 129 kb/s
Channel(s) : 2 channels
Channel layout : L R
Sampling rate : 44.1 kHz
Frame rate : 43.066 FPS (1024 SPF)
Compression mode : Lossy
Stream size : 140 MiB (6%)
Default : Yes
Alternate group : 1

SEAdLINNNG 6th Anniversary

Complete name : 2021.08.19.SEAdLINNNG.6th.Anniversary.Tokyo.Korakuen.Hall.720p.mp4
Format : MPEG-4
Format profile : Base Media
Codec ID : isom
File size : 2.27 GiB
Duration : 2 h 31 min
Overall bit rate mode : Variable
Overall bit rate : 2 138 kb/s

Video
ID : 1
Format : AVC
Duration : 2 h 31 min
Bit rate mode : Variable
Bit rate : 2 002 kb/s
Maximum bit rate : 6 144 kb/s
Width : 1 280 pixels
Height : 720 pixels
Display aspect ratio : 16:9
Frame rate mode : Constant
Frame rate : 30.000 FPS
Color space : YUV
Chroma subsampling : 4:2:0
Bit depth : 8 bits
Scan type : Progressive
Bits/(Pixel*Frame) : 0.072
Stream size : 2.12 GiB (94%)
Codec configuration box : avcC

SEAdLINNNG 6th Anniversary

Audio
ID : 2
Format : AAC LCLow Complexity
Codec ID : mp4a-40-2
Duration : 2 h 31 min
Duration_LastFrame : -2 ms
Bit rate mode : Constant
Bit rate : 129 kb/s
Channel(s) : 2 channels
Channel layout : L R
Sampling rate : 44.1 kHz
Frame rate : 43.066 FPS (1024 SPF)
Compression mode : Lossy
Stream size : 140 MiB (6%)
Default : Yes
Alternate group : 1

SEAdLINNNG 6th Anniversary

 

[collapse]

 

 

https://dx-tv.com/

You May Also Like

Leave a Reply

Your email address will not be published. Required fields are marked *

This site uses Akismet to reduce spam. Learn how your comment data is processed.