Day 13 G1 CLIMAX 30 2020 NJPW Full Show Online

Watch NJPW Day 13 G1 CLIMAX 30 2020 10 10 WEB H264 DX-TV

 

Day 13 G1 CLIMAX 30

 

 Day 13 G1 CLIMAX 30

 

Day 13 G1 CLIMAX 30 2020 NJPW Full Show Online

 

The first group match of the evening saw Jeff Cobb in a must-win situation against Tomohiro Ishii. Always expected to be a hoss fight, the match started in fitting form with both men colliding with shoulder tackles before Ishii was put down by the larger Cobb. An arrogant kip-up from Cobb when Ishii responded however, led the Stone Pitbull to gain an advantage with a backdrop suplex and brutal chops. 

When Ishii got too confident himself as he paintbrushed Cobb with boots and foul language, Cobb threw his opponent clean across the ring with a T-Bone suplex, and set the table for a suplex party. Ishii’s response was to pull away the table cloth, which he did with a huge vertical suplex of his own and chops and jabs fired into Cobb in the ropes, the referee stepping in as Cobb appeared to have difficulty defending himself. 

Day 13 G1 CLIMAX 30

Sato again stepped in when an almighty elbow rocked Mr. Athletic, but Cobb rallied to deliver a thunderous belly to belly to Ishii, only succeeding in firing up his opponent as the two men exchanged throws. With a lethal rocket headbutt, it was Cobb gaining the upper hand, and the Olympian followed by misdirecting Ishii in midair with a German suplex before a Gachimuchi Moonsault connected for two. 

Ishii escaped Tour of the Islands and landed a jumping high kick, but landed hard on the right knee that has been giving him trouble through the tournament. A slight hobble when running off the ropes gave Cobb time to connect with a headbutt, but Ishii still stayed in the game with a thunderous lariat and then a second blow which all but decapitated Cobb for the nearest of nearfalls. 

Day 13 G1 CLIMAX 30

Ishii looked to seal the deal with the Vertical Drop; countered by Spin Cycle, Ishii still found his feet and clashed skulls with Cobb until both collapsed to the mat. Ishii charged once more at Cobb, but digging deep with all he had, the former NEVER Champion hit a pop up powerbomb and an almighty Tour of the Islands for the victory. 

 

Day 13 G1 CLIMAX 30

Complete name : NJPW Day 13 G1 CLIMAX 30 2020 10 10 WEB H264 DX-TV.mp4
Format : MPEG-4
Format profile : Base Media
Codec ID : isom
File size : 2.62 GiB
Duration : 3 h 11 min
Overall bit rate : 1 957 kb/s
Writing application : Lavf58.25.100

 13 G1 CLIMAX 30

Video
ID : 1
Format : AVC
Duration : 3 h 11 min
Bit rate : 1 848 kb/s
Width : 960 pixels
Height : 540 pixels
Display aspect ratio : 16:9
Frame rate mode : Variable
Frame rate : 30.000 FPS
Minimum frame rate : 4.545 FPS 
Color space : YUV
Chroma subsampling : 4:2:0
Bit depth : 8 bits
Scan type : Progressive
Bits/(Pixel*Frame) : 0.119
Stream size : 2.47 GiB (94%)
Color range : Limited
Color primaries : BT.601 PAL
Transfer characteristics : BT.601
Matrix coefficients : BT.470  
Codec configuration box : avcC

Day 13 G1 CLIMAX 30

Audio
ID : 2
Format : AAC LC
Format/Info : Advanced Audio
Codec ID : mp4a-40-2
Duration : 3 h 11 min
Bit rate mode : Constant
Bit rate : 99.4 kb/s
Channel(s) : 2 channels
Channel layout : L R
Sampling rate : 44.1 kHz
Frame rate : 43.066 FPS (1024 SPF)
Compression mode : Lossy
Stream size : 136 MiB (5%)
Default : Yes
Alternate group : 1

 

 

 

Day 13 G1 CLIMAX 30 2020 NJPW Full Show Online

 

 

Watch online

 

 

Server 1

 

 

 

 

Day 13 G1 CLIMAX 30

 

 

 

 

Server-2

 

 

 

watch now

 

 

 

 

Server-3

 

 

 

watch now

 

 

 

 

Uploaded By Site DX-TV.com

 

 

 

 

Download Free Links with normal and high Speed [ more 14 hosts ]  

 

 

 

 

http://shrt10.com/wdpawWR7
http://shrt10.com/TB2OVyT
http://shrt10.com/4LzLFM
http://shrt10.com/iExhB
http://shrt10.com/Ri6sn8
http://shrt10.com/MsC8E
http://shrt10.com/MEzDqng
http://shrt10.com/Qw13k
http://shrt10.com/NgmuVc1

 

 

 

Download Links with premium High Speed   

 

 

 

 

dropapk.to

 

 

 

nitroflare.com

 

 

 

rapidgator.net

 

 

 

uploaded.net

 

 

 

uploadgig.com

 

 

 

 

 

dx-tv.com

 

urlfree.net

Leave a Reply

Your email address will not be published. Required fields are marked *

This site uses Akismet to reduce spam. Learn how your comment data is processed.