AIW Thunder in Indianapolis 2020 10 09 Full Show Online

Watch AIW Thunder in Indianapolis 2020 10 10 Full Show Online DX-TV

 

AIW Thunder in Indianapolis 2020

 

 AIW Thunder in Indianapolis 2020

 

AIW Thunder in Indianapolis 2020 10 10 Full Show Online

 

Name of the event: AIW Thunder In Indianapolis
Date: 09.10.2020
Promotion: Absolute Intense Wrestling
Type: Pay Per View 
Location: Indianapolis, Indiana, USA
Arena: Marion County Fairgrounds
Broadcast type: Live
Broadcast date: 09.10.2020
TV station/network: FITE TV
Commentary by: Matt Wadsworth, The Duke, Colin Delaney & Dominic Garrini

AIW Thunder in Indianapolis 2020

AIW 10/9/2020 Thunder In Indianapolis results from The Coliseum at The Marion County Fairgrounds in Indianapolis, Indiana.

  1. Dr. Daniel C. Rockingham def. Zach Thomas, Derek Dillinger and PB Smooth
  2. Danhausen def. Mordecai
  3. Erick Stevens def. Dominic Garrini
  4. Bitcoin Boiz def. Allie Kat and Levi Everett
  5. Tre LaMar def. Lee Moriarty and Alex Shelley
  6. Mance Warner def. Mr. Brickster
  7. “Filthy” Tom Lawlor def. The Karate Man
  8. 2 out of 3 Falls Match for the AIW Tag Team Championships: The Philly Marino Experience def. To Infinity and Beyond (c) to become the new AIW Tag Team Champions
  9. No Rope Barbed Wire Match for the Absolute Championship: Joshua Bishop w/ Wes Barkley def. Matthew Justice (c) w/ Fonzie to become the new AIW Absolute Champion.

 

AIW Thunder in Indianapolis 2020

Complete name : AIW Thunder in Indianapolis 2020 10 09 720p WEB H264 DX-TV.mp4
Format : MPEG-4
Format profile : Base Media
Codec ID : isom
File size : 2.45 GiB
Duration : 2 h 44 min
Overall bit rate : 2 133 kb/s
Writing application : Lavf57.71

AIW Thunder in Indianapolis 2020

Video
ID : 1
Format : AVC
Format/Info : Advanced Video
Duration : 2 h 44 min
Bit rate : 1 999 kb/s
Width : 1 280 pixels
Height : 720 pixels
Display aspect ratio : 16:9
Frame rate mode : Variable
Frame rate : 29.905 FPS
Minimum frame rate : 6.617 FPS
Maximum frame rate : 29.985 FPS
Original frame rate : 29.775 FPS
Color space : YUV
Chroma subsampling : 4:2:0
Bit depth : 8 bits
Scan type : Progressive
Bits/(Pixel*Frame) : 0.073
Stream size : 2.30 GiB (94%)
Codec configuration box : avcC

AIW Thunder in Indianapolis 2020

Audio
ID : 2
Format : AAC LC
Format/Info : Advanced Audio
Codec ID : mp4a-40-2
Duration : 2 h 44 min
Bit rate mode : Constant
Bit rate : 128 kb/s
Channel(s) : 2 channels
Channel layout : L R
Sampling rate : 44.1 kHz
Frame rate : 43.066 FPS (1024 SPF)
Compression mode : Lossy
Stream size : 150 MiB (6%)
Default : Yes
Alternate group : 1

 

 

 

AIW Thunder in Indianapolis 2020 10 10 Full Show Online

 

Watch online

 

 

Server 1

 

 

 

 

watch now

 

 

 

 

Server-2

 

 

 

AIW Thunder in Indianapolis 2020

 

 

 

 

Server-3

 

 

 

watch now

 

 

 

 

Uploaded By Site DX-TV.com

 

 

 

 

Download Free Links with normal and high Speed [ more 14 hosts ]  

 

 

 

http://shrt10.com/DiF8d
http://shrt10.com/t0enj
http://shrt10.com/pQ3slLVry
http://shrt10.com/Tr7Mg
http://shrt10.com/jhVJqB0
http://shrt10.com/gYhAfRr
http://shrt10.com/rAQu9tN
http://shrt10.com/XDttADZ

 

 

 

Download Links with premium High Speed   

 

 

 

 

dropapk.to

 

 

 

nitroflare.com

 

 

 

rapidgator.net

 

 

 

uploaded.net

 

 

 

uploadgig.com

 

 

 

 

 

dx-tv.com

 

urlfree.net

Leave a Reply

Your email address will not be published. Required fields are marked *

This site uses Akismet to reduce spam. Learn how your comment data is processed.