Combat Jiu-Jitsu Worlds 2020 The Female Flyweights DX-TV

 Combat Jiu-Jitsu Worlds 2020 The Female Flyweights 720p DX-TV

Combat Jiu-Jitsu Worlds 2020

 Combat Jiu-Jitsu Worlds 2020

 

Download Links with premium High Speed   

 

 

dropapk.to

http://shrt10.com/a5hFR5

 

 

nitroflare.com

http://shrt10.com/rdVIJ

 

 

rapidgator.net

http://shrt10.com/asxqxLnx

 

 

uploaded.net

http://shrt10.com/36A6nL5

 

 

uploadgig.com

http://shrt10.com/JqJ35

 

 

Watch online

 

Server 1

 

 

 

 

Combat Jiu-Jitsu Worlds 2020

 

 

 

 

Server-2

 

 

 

 

watch now

 

 

Uploaded By Site DX-TV.com

 

 

 

[su_expand more_text=”Show More Info” less_text=”Close all Info” height=”50″ text_color=”#000000″ link_color=”#e25f8b” link_style=”button” more_icon=”icon: arrow-down” less_icon=”icon: arrow-up”]

Combat Jiu-Jitsu Worlds

 

Event Preamble

Combat Jiu-Jitsu Worlds 2020 (CJJ) – The Female Flyweights will be held on 20th December in Cancun, Mexico.

This event will crown CJJ’s first ever female flyweight champion.

Featuring

Pearl Gonzalez
Gabby “The Kraken” Romero
Liz Tracy
Jessica Delboni
Rachael Cummins
Nikki Sullivan
Brianna Ste-Marie
Carina Damm

Combat Jiu-Jitsu Worlds 2020

Special Match

Andrea Vazquez vs Randi Mae Miley

Additional fights

Dan Martinez (CJJ Middleweight Champion) vs Kyle Boehm (BJJ Fanatic Champion)
Jon “Thor” Blank (EBI CJJ Champion) vs Hunter Colvin (3X EBI/CJJ Veteran)

Combat Jiu-Jitsu is a format created by 10th Planet founder Eddie Bravo,

to increase realism in BJJ. It allows for open-palm strikes on the ground.

First surfaced in 2017 in EBI 11, it has since grown from strength to strength. In 2018.

up-kicks are added to the format to urge the standing fighter to engage the bottom fighter’s guard.

There are no points, and the event is won either via submission or TKO (technical knock-out).

If the event is not concluded during the standard match time, it enters EBI (Eddie Bravo Invitational) overtime rounds.

 

Combat Jiu-Jitsu Worlds 2020

Complete name : CJJW.The.Female.Flyweights.720p DX-TV.com.mp4
Format : MPEG-4
Format profile : Base Media
File size : 1.73 GiB
Duration : 2 h 32 min
Overall bit rate : 1 632 kb/s
Writing application : Lavf58.12.100

Video
ID : 1
Format : AVC
Duration : 2 h 32 min
Bit rate : 1 512 kb/s
Width : 1 280 pixels
Height : 720 pixels
Display aspect ratio : 16:9
Frame rate mode : Constant
Frame rate : 30.000 FPS
Color space : YUV
Chroma subsampling : 4:2:0
Bit depth : 8 bits
Scan type : Progressive
Bits/(Pixel*Frame) : 0.055
Stream size : 1.59 GiB (92%)

Combat Jiu-Jitsu Worlds  

Audio
ID : 2
Format : AAC LC
Codec ID : mp4a-40-2
Duration : 2 h 32 min
Bit rate mode : Constant
Bit rate : 128 kb/s
Channel(s) : 2 channels
Channel layout : L R
Sampling rate : 48.0 kHz
Frame rate : 46.875 FPS (1024 SPF)
Compression mode : Lossy
Stream size : 140 MiB (8%)
Default : Yes
Alternate group : 1

Combat Jiu-Jitsu Worlds 

[/su_expand]

 

https://dx-tv.com/

You May Also Like

1 Comment

Leave a Reply

Your email address will not be published. Required fields are marked *

This site uses Akismet to reduce spam. Learn how your comment data is processed.