Watch WWE TLC Online 2020 PPV 1080p DX-TV

Watch WWE TLC Online 2020 PPV HDTV Star /720p/ 1080p DX-TV

Watch WWE TLC Online

 Watch WWE TLC Online

 

Download Links with premium High Speed   

 

 

dropapk.to

http://shrt10.com/5vUkw
http://shrt10.com/qLE4C

 

 

nitroflare.com

http://shrt10.com/JJC8JXPW
http://shrt10.com/cbQaCT

http://shrt10.com/hEZOPw          1080p

 

rapidgator.net

http://shrt10.com/rx1nmCp7        1080p

http://shrt10.com/j7mFV
http://shrt10.com/BKqu3nqX

 

 

uploaded.net

http://shrt10.com/Z7ljxk

 

 

uploadgig.com

http://shrt10.com/ZCLJz0A
http://shrt10.com/afXeWP

 

Watch online

 

Server 1

 

 

 

 

Watch WWE TLC Online

 

 

 

 

Server-2

 

 

 

 

watch now

 

 

Uploaded By Site DX-TV.com

 

 

 

[su_expand more_text=”Show More Info” less_text=”Close all Info” height=”50″ text_color=”#000000″ link_color=”#e25f8b” link_style=”button” more_icon=”icon: arrow-down” less_icon=”icon: arrow-up”]
Complete name : WWE.TLC.2020.PPV.HDTV.x264-Star.mp4
Format : MPEG-4
Format profile : Base Media
File size : 1.79 GiB
Duration : 3 h 0 min
Overall bit rate : 1 420 kb/s

Watch WWE TLC Online

Video
ID : 1
Format : AVC
Duration : 3 h 0 min
Bit rate : 1 300 kb/s
Width : 720 pixels
Height : 480 pixels
Display aspect ratio : 16:9
Original display aspect rat : 16:9
Frame rate mode : Constant
Frame rate : 29.970 (30000/1001) FPS
Standard : NTSC
Color space : YUV
Chroma subsampling : 4:2:0
Bit depth : 8 bits
Scan type : Progressive
Bits/(Pixel*Frame) : 0.126
Stream size : 1.63 GiB
Color range : Limited
Color primaries : BT.601 NTSC
Transfer characteristics : BT.709
Matrix coefficients : BT.601
Codec configuration box : avc

Watch WWE TLC Online

Audio
ID : 2
Format : AAC LC
Format/Info : Advanced Audio
Codec ID : mp4a-40-2
Duration : 3 h 0 min
Bit rate mode : Constant
Bit rate : 112 kb/s
Channel(s) : 2 channels
Channel layout : L R
Sampling rate : 48.0 kHz
Frame rate : 46.875 FPS (1024 SPF)
Compression mode : Lossy
Stream size : 145 MiB (8%)
Title : Stereo
Default : Yes

Complete name : WWE.TLC.2020.PPV.720p.HDTV.x264-Star.mkv
Format : Matroska
Format version : Version 4
File size : 5.19 GiB
Duration : 3 h 0 min
Overall bit rate : 4 128 kb/s
Encoded date : UTC 2020-12-21 08:20:27
Writing application : HandBrake 1.3.3 2020061300
Writing library : Lavf58.29.100
Error Detection Type : Per level 1

Watch WWE TLC Online

Video
ID : 1
Format : AVC
Format/Info : Advanced
Duration : 3 h 0 min
Bit rate : 4 000 kb/s
Width : 1 280 pixels
Height : 720 pixels
Display aspect ratio : 16:9
Frame rate mode : Constant
Frame rate : 29.970 (30000/1001) FPS
Color space : YUV
Chroma subsampling : 4:2:0
Bit depth : 8 bits
Scan type : Progressive
Bits/(Pixel*Frame) : 0.145
Stream size : 4.93 GiB (95%)
Forced : No
Color range : Limited
Color primaries : BT.709
Transfer characteristics : BT.709
Matrix coefficients : BT.709

 WWE TLC Online

Audio
ID : 2
Format : AC-3
Format/Info : Audio Coding 3
Commercial name : Dolby Digital
Codec ID : A_AC3
Duration : 3 h 0 min
Bit rate mode : Constant
Bit rate : 128 kb/s
Channel(s) : 2 channels
Channel layout : L R
Sampling rate : 48.0 kHz
Frame rate : 31.250 FPS
Compression mode : Lossy
Delay relative to video : -5 ms
Stream size : 165 MiB (3%)
Title : Stereo
Service kind : Complete Main
Default : Yes
Forced : No

Watch WWE TLC  

Complete name : WWE.TLC.2020.PPV.1080p.HDTV.x264-Star.mkv
Format : Matroska
Format version : Version 4
File size : 10.2 GiB
Duration : 3 h 0 min
Overall bit rate : 8 126 kb/s
Writing library : Lavf58.29.100

Video
ID : 1
Format : AVC
Duration : 3 h 0 min
Bit rate : 8 000 kb/s
Width : 1 920 pixels
Height : 1 080 pixels
Display aspect ratio : 16:9
Frame rate mode : Constant
Frame rate : 29.970 (30000/1001) FPS
Color space : YUV
Chroma subsampling : 4:2:0
Bit depth : 8 bits
Scan type : Progressive
Bits/(Pixel*Frame) : 0.129
Stream size : 9.85 GiB (96%)
Default : Yes
Forced : No
Color range : Limited
Color primaries : BT.709
Transfer characteristics : BT.709
Matrix coefficients : BT.709

 WWE TLC Online

Audio
ID : 2
Format : AC-3
Format/Info : Audio Coding 3
Commercial name : Dolby Digital
Codec ID : A_AC3
Duration : 3 h 0 min
Bit rate mode : Constant
Bit rate : 128 kb/s
Channel(s) : 2 channels
Channel layout : L R
Sampling rate : 48.0 kHz
Frame rate : 31.250 FPS (1536 SPF)
Compression mode : Lossy
Delay relative to video : -5 ms
Stream size : 165 MiB (2%)
Title : Stereo
Service kind : Complete Main
Default : Yes
Forced : No

 WWE TLC Online

[/su_expand]

 

https://dx-tv.com/

Leave a Reply

Your email address will not be published. Required fields are marked *

This site uses Akismet to reduce spam. Learn how your comment data is processed.