Cage Warriors 118 Free Online 720p DX-TV

Cage Warriors 118 Free Online 720p DX-TV

Cage Warriors 118

 Cage Warriors 118

 

Download Links with premium High Speed   

Cage 118

 

dropapk.to

http://shrt10.com/TAgbaFGGa
http://shrt10.com/EyzaT2vhi

 

 

nitroflare.com

http://shrt10.com/RJydg
http://shrt10.com/GbZd0Tk8r

 

 

rapidgator.net

http://shrt10.com/9W4M3
http://shrt10.com/GCE5k

 

 

uploaded.net

http://shrt10.com/NzDF5Rtj
http://shrt10.com/2A5FNwA

Watch online

 

Server 1

 

 

 

 

Cage Warriors 118

watch now

 

 

 

 

Server-2

 

 

 

 

Cage Warriors 118

watch now

 

 

 

 

Uploaded By Site DX-TV.com

 

 

 

[su_expand more_text=”Show More Info” less_text=”Close all Info” height=”50″ text_color=”#000000″ link_color=”#e25f8b” link_style=”button” more_icon=”icon: arrow-down” less_icon=”icon: arrow-up”]

Complete name : Cage.Warriors.118.720p.FP.WEB-DL.H264-SHREDDiE.mp4
Format : MPEG-4
Format profile : Base Media
Codec ID : isom
File size : 4.86 GiB
Duration : 2 h 29 min
Overall bit rate mode : Variable
Overall bit rate : 4 639 kb/s
Writing application : Lavf57.83.100

 Warriors 118

Video
ID : 1
Format : AVC
Duration : 2 h 29 min
Bit rate mode : Variable
Bit rate : 4 501 kb/s
Maximum bit rate : 4 809 kb/s
Width : 1 280 pixels
Height : 720 pixels
Display aspect ratio : 16:9
Frame rate mode : Variable
Frame rate : 25.000 FPS
Minimum frame rate : 12.500 FPS
Maximum frame rate : 90 000.000 FPS
Standard : PAL
Color space : YUV
Chroma subsampling : 4:2:0
Bit depth : 8 bits
Scan type : Progressive
Bits/(Pixel*Frame) : 0.195
Stream size : 4.71 GiB (97%)
Color primaries : BT.709
Transfer characteristics : BT.709
Matrix coefficients : BT.709
Codec configuration box : avc

 Warriors 118

Audio
ID : 2
Format : AAC LC
Format/Info : Advanced Audio
Codec ID : mp4a-40-2
Duration : 2 h 29 min
Bit rate mode : Variable
Bit rate : 132 kb/s
Maximum bit rate : 135 kb/s
Channel(s) : 2 channels
Channel layout : L R
Sampling rate : 48.0 kHz
Frame rate : 46.875 FPS
Compression mode : Lossy
Stream size : 141 MiB (3%)
Default : Yes
Alternate group : 1

 Warriors 118

 

Main Card

 

Cage Warriors Middleweight Title 

Nathias Frederick defeated. Jamie Richardson via KO (punch) after 0:18 of round 3

Leonardo Damiani defeated Aaron Khalid via Split decision  after 3 rounds

 

[/su_expand]

 

https://dx-tv.com/

Leave a Reply

Your email address will not be published. Required fields are marked *

This site uses Akismet to reduce spam. Learn how your comment data is processed.