Cage Warriors 117 720p Free Online DX-TV

Cage Warriors 117 720p Free Online DX-TV

Cage Warriors 117

 Cage Warriors 117

 

Download Links with premium High Speed   

 

 

dropapk.to

http://shrt10.com/TAgbaFGGa
http://shrt10.com/4Z4tO

 

 

nitroflare.com

http://shrt10.com/RJydg
http://shrt10.com/ld9aq37U2

 

 

rapidgator.net

http://shrt10.com/9W4M3
http://shrt10.com/Eb9JVEoWN

 

 

uploaded.net

http://shrt10.com/NzDF5Rtj
http://shrt10.com/THSZ8d2

 

 

uploadgig.com

http://shrt10.com/ydZdcR
http://shrt10.com/jCVOUWnS

 

 Warriors 117

 

Watch online

 

Server 1

 

 

 

 

Cage Warriors 117

watch now

 

 

 

 

Server-2

 

 

 

 

Cage Warriors 117

watch now

 

 

 

 

Uploaded By Site DX-TV.com

 Warriors 117

[su_expand more_text=”Show More Info” less_text=”Close all Info” height=”50″ text_color=”#000000″ link_color=”#e25f8b” link_style=”button” more_icon=”icon: arrow-down” less_icon=”icon: arrow-up”]

Complete name : Cage.Warriors.117.720p.FP.WEB-DL.H264-SHREDDiE.mp4
Format : MPEG-4
File size : 4.10 GiB
Duration : 2 h 44 min
Overall bit rate : 3 555 kb/s
Writing application : Lavf57.83.100

Video
ID : 1
Format : AVC
Duration : 2 h 44 min
Bit rate : 3 372 kb/s
Width : 1 280 pixels
Height : 720 pixels
Display aspect ratio : 16:9
Frame rate mode : Constant
Frame rate : 30.000 FPS
Color space : YUV
Chroma subsampling : 4:2:0
Bit depth : 8 bits
Scan type : Progressive
Bits/(Pixel*Frame) : 0.122
Stream size : 3.86 GiB (94%)

Audio
ID : 2
Format : AAC LC
Format/Info : Advanced Audio
Codec ID : mp4a-40-2
Duration : 2 h 44 min
Bit rate mode : Constant
Bit rate : 192 kb/s
Channel(s) : 2 channels
Channel layout : L R
Sampling rate : 48.0 kHz
Frame rate : 46.875 FPS (1024 SPF)
Compression mode : Lossy
Stream size : 228 MiB (5%)
Default : Yes
Alternate group : 1

 Warriors 117

Codec ID : mp4a-40-2
Duration : 2 h 44 min
Bit rate mode : Constant
Bit rate : 192 kb/s
Channel(s) : 2 channels
Channel layout : L R
Sampling rate : 48.0 kHz
Frame rate : 46.875 FPS (1024 SPF)
Compression mode : Lossy
Stream size : 228 MiB (5%)
Default : Yes
Alternate group : 1

[/su_expand]

 

https://dx-tv.com/

Leave a Reply

Your email address will not be published. Required fields are marked *

This site uses Akismet to reduce spam. Learn how your comment data is processed.