UFC 256 Early Prelims Free Online DX-TV

UFC 256 Early Prelims Free Online DX-TV

UFC 256 Early Prelims

 UFC 256 Free Livestream

 

Download Links with premium High Speed   

 

 

dropapk.to

http://shrt10.com/25epkg0WJ

 

 

nitroflare.com

http://shrt10.com/f8b8M

 

 

rapidgator.net

http://shrt10.com/xOa5YK

 

 

uploaded.net

http://shrt10.com/zjyukm

 

 

uploadgig.com

http://shrt10.com/WMIKQhT

 

 

UFC 256 Early Prelims

Watch online

 

Server 1

 

 

 

 

UFC 256 Early Prelims

 

 

 

 

Server-2

 

 

 

 

watch now

 

 

 

 

Uploaded By Site DX-TV.com

 

[su_expand more_text=”Show More Info” less_text=”Close all Info” height=”50″ text_color=”#000000″ link_color=”#e25f8b” link_style=”button” more_icon=”icon: arrow-down” less_icon=”icon: arrow-up”]

Complete name : UFC.256.Early.Prelims.720p.DX-TV.COM.mp4
Format : MPEG-4
File size : 1.04 GiB
Duration : 32 min 52 s
Overall bit rate mode : Variable
Overall bit rate : 4 528 kb/s
Writing application : Lavf57.83.100

 256 Early Prelims

Video
ID : 1
Format : AVC
Duration : 32 min 52 s
Bit rate mode : Variable
Bit rate : 4 388 kb/s
Maximum bit rate : 4 809 kb/s
Width : 1 280 pixels
Height : 720 pixels
Display aspect ratio : 16:9
Frame rate mode : Variable
Frame rate : 30.000 FPS
Standard : NTSC
Color space : YUV
Chroma sampling : 4:2:0
Bit depth : 8 bits
Scan type : Progressive
Bits/(Pixel*Frame) : 0.159
Stream size : 1.01 GiB (97%)
Color primaries : BT.709
Transfer characteristics : BT.709
Matrix coefficients : BT.709
Codec configuration box : avc

 256 Early Prelims

Audio
ID : 2
Format : AAC LC
Format/Info : Advanced Audio
Codec ID : mp4a-40-2
Duration : 32 min 52 s
Bit rate mode : Constant
Bit rate : 132 kb/s
Channel(s) : 2 channels
Channel layout : L R
Sampling rate : 48.0 kHz
Frame rate : 46.875 FPS (1024 SPF)
Compression mode : Lossy
Stream size : 31.0 MiB (3%)
Default : Yes
Alternate group : 1

 256 Early Prelims

Text
ID : 1-CC1
Format : EIA-608
Muxing mode : SCTE 128 / DTVCC Transport
Muxing mode, more info : Muxed in Video #1
Duration : 32 min 52 s
Bit rate mode : Constant
Stream size : 0.00 Byte (0%)
CaptionServiceName : CC1

 

[/su_expand]

 

https://dx-tv.com/

Leave a Reply

Your email address will not be published. Required fields are marked *

This site uses Akismet to reduce spam. Learn how your comment data is processed.