Bellator Euro Series 10 Main Card Free Online

Watch Bellator Euro Series 10 Main Card Free Online DX-TV

 

Bellator Euro Series 10

 

 Bellator Euro Series 10

 

Bellator Euro Series 10 Main Card Free Online

 

 

Complete name : Bellator.Euro.Series.10.Prelims.WEB.720p.x264.mp4
Format : MPEG-4
Format profile : Base Media
Codec ID : mp42
File size : 1.75 GiB
Duration : 2 h 0 min
Overall bit rate mode : Variable
Overall bit rate : 2 078 kb/s

Euro Series 10

Video
ID : 1
Format : AVC
Duration : 2 h 0 min
Bit rate : 1 946 kb/s
Width : 1 280 pixels
Height : 720 pixels
Display aspect ratio : 16:9
Frame rate mode : Constant
Frame rate : 29.970 FPS
Color space : YUV
Chroma subsampling : 4:2:0
Bit depth : 8 bits
Scan type : Progressive
Bits/(Pixel*Frame) : 0.070
Stream size : 1.64 GiB (94%)
Color range : Limited
Color primaries : BT.709
Transfer characteristics : BT.709
Matrix coefficients : BT.709
Codec configuration box : avcC

Bellator Euro Series 10

Audio
ID : 2
Format : AAC LC
Format/Info : Advanced Audio
Codec ID : mp4a-40-2
Duration : 2 h 0 min
Bit rate mode : Variable
Bit rate : 128 kb/s
Channel(s) : 2 channels
Channel layout : L R
Sampling rate : 44.1 kHz
Frame rate : 43.066 FPS (1024 SPF)
Compression mode : Lossy
Stream size : 111 MiB (6%)
Language : English

Euro Series 10

Bellator 248 Main Card (11:30 a.m. ET):

170 lbs.: Oliver Enkamp (9-2) vs. Emmanuel Dawa (9-3)
160 lbs.: Ryan Scope (11-3) vs. Alan Omer (23-5)
145 lbs.: Mads Burnell (13-3) vs. Darko Banovic (15-7)

Euro Series 10

European Series 10 “Kongo vs. Johnson 2” Main Event:

265 lbs.: Cheick Kongo (30-10-2) vs. Timothy Johnson (14-6)

Watch 248 Free Online

European Series 10 Main Card (5:00 p.m. ET):

145 lbs.: Saul Rogers (13-3) vs. Arbi Mezhidov (13-3)

 

 

Euro Series 10 Main Card Free Online

 

 

Watch online

 

 

 

Server 1

 

 

 

 

watch now

 

 

 

 

Server-2

 

 

 

watch now

 

 

 

 

Server-3

 

 

 

Bellator Euro Series 10

 

 

 

 

Uploaded By Site DX-TV.com

 

 

 

 

Download Free Links with normal and high Speed [ more 14 hosts ]  

 

 

 

http://shrt10.com/o9WmdHB8W
http://shrt10.com/JvXjdv
http://shrt10.com/xQk60et
http://shrt10.com/52o6x
http://shrt10.com/nsyoXfGfW
http://shrt10.com/qofAtMAX
http://shrt10.com/q261Yl
http://shrt10.com/zifu6NC
http://shrt10.com/hEAnEq
http://shrt10.com/tXhxOGJD
http://shrt10.com/zBSowq

 

 

 

 

Download Links with premium High Speed   

 

 

 

 

dropapk.to

 

 

 

nitroflare.com

 

 

 

rapidgator.net

 

 

 

uploaded.net

 

 

 

uploadgig.com

 

 

 

 

 

dx-tv.com

 

urlfree.net

Leave a Reply

Your email address will not be published. Required fields are marked *

This site uses Akismet to reduce spam. Learn how your comment data is processed.