Download SmackDown 1080p 2020 10 09 WWE Full Show

Watch WWE SmackDown 2020 10 09 1080p HDTV Star DX-TV

 

Download SmackDown

 

 Download SmackDown

 

Download SmackDown 1080p 2020 10 09 WWE Full Show

 

 

 

 

Complete name : WWE.Friday.Night.SmackDown.2020.10.09.1080p.HDTV.x264-Star.mkv
Format : Matroska
Format version : Version 4
File size : 7.22 GiB
Duration : 1 h 40 min
Overall bit rate : 10.2 Mb/s
Writing library : Lavf58.29.100

Download SmackDown

Video
ID : 1
Format : AVC
Format/Info : Advanced Video Codec
Codec ID : V_MPEG4/ISO/AVC
Duration : 1 h 40 min
Bit rate : 10 000 kb/s
Width : 1 920 pixels
Height : 1 078 pixels
Display aspect ratio : 16:9
Frame rate mode : Constant
 rate : 29.970 (30000/1001) FPS
Color space : YUV
Chroma subsampling : 4:2:0
Bit depth : 8 bits
Scan type : Progressive
Bits/(Pixel*Frame) : 0.161
Stream size : 6.90 GiB (96%)
Forced : No
Color range : Limited
Color primaries : BT.709
Transfer characteristics : BT.709
Matrix coefficients : BT.709

Download SmackDown

Audio
ID : 2
Format : AC-3
Format/Info : Audio Coding 3
Commercial name : Dolby Digital
Codec ID : A_AC3
Duration : 1 h 40 min
Bit rate mode : Constant
Bit rate : 256 kb/s
Channel(s) : 2 channels
Channel layout : L R
Sampling rate : 48.0 kHz
Frame rate : 31.250 FPS (1536 SPF)
Compression mode : Lossy
Delay relative to video : -5 ms
Stream size : 185 MiB (3%)
Title : Stereo
Service kind : Complete Main
Default : Yes
Forced : No

 

Big E def. Sheamus – Falls Count Anywhere Match

Big E has been waiting to get his hands on Sheamus for weeks, and he made the most of the punishing opportunity when he finally did. The New Day powerhouse endured Kendo stick strikes, broken eggs and a smash onto the windshield in the brutal battle with The Celtic Warrior. As Sheamus tried to shut the trunk on Big E, the energetic Superstar held it off with his leg and got back on the attack. In the final moments, Big E landed a Big Ending over a table to earn a hard-fought victory in the grueling Falls Count Anywhere Match.

 

Jeff Hardy & Matt Riddle def. The Miz & John Morrison; Lars Sullivan made a shocking return

In a Twitter exchange earlier in the day, Jeff Hardy & Matt Riddle expressed their desire to team up. The Miz & John Morrison were more than happy to give them the opportunity. The Charismatic Enigma & The Original Bro showed the chemistry of a long-time team, as they dominated points of the match. Riddle clinched the victory for the newly-formed tandem with a crushing Bro Derek to The Miz.

The fireworks came after the bell, as Lars Sullivan made a shocking return to WWE action. “The Freak” laid waste to Hardy, Riddle and Miz, as he showed off his colossal strength. What could the return of Sullivan, who is eligible to be drafted on Monday, possibly mean for the WWE landscape?

Download SmackDown 1080p 2020 10 09 WWE Full Show

 

 

 

 

Watch online

 

 

 

 

 

Server 1

 

 

 

 

WWE SmackDown

 

 

 

 

Server-2

 

 

 

WWE SmackDown

 

 

 

 

Server-3

 

 

 

watch now

 

Download SmackDown

 

 

Uploaded By Site DX-TV.com

 

 

 

Download Links with premium High Speed   

 

 

 

 

 

nitroflare.com

 

 

 

rapidgator.net

 

 

dx-tv.com

 

urlfree.net

Leave a Reply

Your email address will not be published. Required fields are marked *

This site uses Akismet to reduce spam. Learn how your comment data is processed.