Bellator Euro Series 10 Prelims Free Online

Watch Bellator Euro Series 10 Prelims Free Online DX-TV

 

Bellator Euro Series 10

 

 Bellator Euro Series 10

Bellator Euro Series 10 Prelims Free Online

 

 

Complete name : Bellator.Euro.Series.10.Prelims.WEB.720p.x264.mp4
Format : MPEG-4
Format profile : Base Media
Codec ID : mp42
File size : 1.75 GiB
Duration : 2 h 0 min
Overall bit rate mode : Variable
Overall bit rate : 2 078 kb/s

Bellator Euro Series 10

Video
ID : 1
Format : AVC
Duration : 2 h 0 min
Bit rate : 1 946 kb/s
Width : 1 280 pixels
Height : 720 pixels
Display aspect ratio : 16:9
Frame rate mode : Constant
Frame rate : 29.970 FPS
Color space : YUV
Chroma subsampling : 4:2:0
Bit depth : 8 bits
Scan type : Progressive
Bits/(Pixel*Frame) : 0.070
Stream size : 1.64 GiB (94%)
Color range : Limited
Color primaries : BT.709
Transfer characteristics : BT.709
Matrix coefficients : BT.709
Codec configuration box : avcC

Bellator Euro Series 10

Audio
ID : 2
Format : AAC LC
Format/Info : Advanced Audio
Codec ID : mp4a-40-2
Duration : 2 h 0 min
Bit rate mode : Variable
Bit rate : 128 kb/s
Channel(s) : 2 channels
Channel layout : L R
Sampling rate : 44.1 kHz
Frame rate : 43.066 FPS (1024 SPF)
Compression mode : Lossy
Stream size : 111 MiB (6%)
Language : English

Euro Series 10

The event at the Accor Arena will begin at 11:30 a.m. ET on CBS Sports Network and DAZN with Bellator 248, which features a four-fight card,

headlined by the 175-pound contract weight bout between England’s Michael Page (17-1 MMA, 13-1 BMMA) and Scotland’s debuting former Cage Warriors welterweight champion Ross Houston (8-0 MMA, 0-0 BMMA).

The action then moves on to the Bellator Europe 10 portion of the event, with the six-bout preliminary card set to be aired on MMA Junkie via the Bellator YouTube channel and DAZN from 1:45 p.m. ET.

Euro Series 10

The two-fight Bellator Europe 10 main card, featuring Arbi Mezhidov (13-3 MMA, 0-0 BMMA) vs. Saul Rogers (13-3 MMA, 1-1 BMMA), then the heavyweight headliner between France’s Cheick Kongo (30-10-2 MMA, 12-2 BMMA) and American Timothy Johnson (14-6 MMA, 2-2 BMMA), will go live from 5 p.m. ET, on MMA Junkie via the Bellator YouTube channel.

 

Bellator Euro Series 10 Prelims Free Online

 

 

 

 

Watch online

 

 

 

 

 

Server 1

 

 

 

 

watch now

 

 

 

 

Server-2

 

 

 

watch now

 

 

 

 

Server-3

 

 

 

Bellator Euro Series 10

 

 

 

 

Uploaded By Site DX-TV.com

 

 

 

 

Download Free Links with normal and high Speed [ more 14 hosts ]  

 

 

 

http://shrt10.com/DOHBJt
http://shrt10.com/w50wc
http://shrt10.com/wCKUCudHB
http://shrt10.com/afk5HxNX
http://shrt10.com/37hlOc0YL
http://shrt10.com/nx2eh9K
http://shrt10.com/G2y9PIO
http://shrt10.com/HuHnq
http://shrt10.com/tLZZV
http://shrt10.com/EYy0pRt
http://shrt10.com/Z0fZiNBP7

 

 

 

 

Download Links with premium High Speed   

 

 

 

 

dropapk.to

 

 

 

nitroflare.com

 

 

 

rapidgator.net

 

 

 

uploaded.net

 

 

 

uploadgig.com

 

 

 

 

 

dx-tv.com

 

urlfree.net

Leave a Reply

Your email address will not be published. Required fields are marked *

This site uses Akismet to reduce spam. Learn how your comment data is processed.