AEW Double Or Nothing 2020 720p Online NWCHD

Watch AEW Double Or Nothing 2020 PPV 720p free NWCHD DX-TV

 

AEW Double

 AEW Double Or Nothing
 

AEW Double Or Nothing 2020 720p Online NWCHD

 

 

Complete name : AEW.Double.Or.Nothing.2020.720p.HDTV.x264-NWCHD.mp4
Format : MPEG-4
Format profile : Base Media / Version 2
Codec ID : mp42
File size : 7.35 GiB
Duration : 3 h 43 min
Overall bit rate mode : Variable
Overall bit rate : 4 700 kb/s
Encoded date : AEW Double
Tagged date : UTC 2020

Video
ID : 1
Format : AVC
Codec ID : avc1
Codec ID/Info : AEW Double
Duration : 3 h 43 min
Bit rate : 4 500 kb/s
Width : 1 280 pixels
Height : 720 pixels
Display aspect ratio : 16:9
Frame rate mode : Constant
Frame rate : 29.970 (30000/1001) FPS
Color space : YUV
Chroma subsampling : 4:2:0
Bit depth : 8 bits
Scan type : Progressive
Bits/(Pixel*Frame) : 0.163
Stream size : 7.03 GiB (96%)
Color range : Limited
Color primaries : BT.709
Transfer : AEW Double
Matrix coefficients : BT.709
Codec configuration box : avcC

Audio
ID : 2
Format : AAC LC
Format/Info : AEW Double
Codec ID : mp4a-40-2
Duration : 3 h 43 min
Bit rate mode : Variable
Bit rate : 192 kb/s
Channel(s) : 2 channels
Channel layout : L R
Sampling rate : 48.0 kHz
Frame rate : 46.875 FPS (1024 SPF)
Compression mode : Lossy
Stream size : 307 MiB (4%)
Title : Stereo / Stereo
Default : Yes
Alternate group : AEW Double

 

 

 

Watch online

 

 

Server 1

 

 

 

 

watch now

 

 

 

 

Server 2

 

 

 

watch now

 

 

 

AEW Double Or Nothing 2020 720p Online NWCHD

 

 

Uploaded By Site DX-TV.com

 

 

 

Download with premium account LinksĀ 

 

 

Keep2Share

 

 

nitroflare.com

 

 

rapidgator.net

 

 

uploadgig.com

 

 

 

dx-tv.com

 

urlfree.net

You May Also Like