Download AEW Double Or Nothing 2020 1080p German

AEW Double Or Nothing 2020 1080p German DX-TV

 

Download AEW

 AEW Double Or Nothing

Download AEW Double Or Nothing 2020 1080p German

 

Complete name : AEW.Double.or.Nothing.2020.Sky.PPV.1080p.German.mp4
Format : MPEG-4
Format profile : Base Media
Codec ID : isom (isom/iso2/avc1/mp41)
File size : 16.3 GiB
Duration : 3 h 43 min
bit rate mode : Download AEW
Overall bit rate : 10.4 Mb/s
Writing application : Lavf51.12.1

Video
ID : 1
Format : AVC
Codec ID : avc1
Codec ID/Info : Download AEW
Duration : 3 h 43 min
Bit rate mode : Variable
Bit rate : 9 991 kb/s
Width : 1 920 pixels
Height : 1 080 pixels
Display aspect ratio : 16:9
Frame rate mode : Constant
Frame rate : 50.000 FPS
Color space : RGB
Chroma subsampling : 4:2:0
Bit depth : 8 bits
Scan type : Progressive
Bits/(Pixel*Frame) : 0.096
Stream size : 15.6 GiB (96%)
Color range : Limited
Matrix coefficients : Download AEW
Codec configuration box : avcC

Audio
ID : 2
Format : AAC LC
Format/Info : Download AEW
Codec ID : mp4a-40-2
Duration : 3 h 43 min
Bit rate mode : Variable
Bit rate : 448 kb/s
Channel(s) : 6 channels
Channel layout : C L R Ls Rs LFE
Sampling rate : 48.0 kHz
Frame rate : 46.875 FPS (1024 SPF)
Compression mode : Lossy
Stream size : 717 MiB (4%)
Language : Download AEW

 

 

 

Watch online

 

 

Server 1

 

 

Waiting converting small size

 

watch now

 

 

 

 

Server 2

 

 

 

watch now

 

 

 

Download AEW Double Or Nothing 2020 1080p German

 

 

Uploaded By Site DX-TV.com

 

 

 

Download with premium account LinksĀ 

 

 

nitroflare.com

http://shrt10.com/pxi07
http://shrt10.com/kSNMs

 

rapidgator.net

https://urlfree.net/3qN3EVb
https://urlfree.net/qCg8y3N

 

uploadgig.com

http://shrt10.com/5sZuTLqMf
http://shrt10.com/Lq6V6oM3L

 

 

dx-tv.com

 

urlfree.net

You May Also Like