AEW Double Or Nothing 2020 720p Pre Show The Buy In

Watch AEW Double Or Nothing 2020 720p Pre Show The Buy In DX-TV

 

AEW Double

 AEW Double Or Nothing
 

AEW Double Or Nothing 2020 720p Pre Show The Buy In

 

 

 

Complete name : AEW.Double.Or.Nothing.2020.Pre.Show.The.Buy.In.720p.WEB.h264-HEEL.mp4
Format : MPEG-4
Format profile : Base Media
Codec ID : isom
File size : 999 MiB
Duration : 30 min 6 s
bit rate mode : Variable
Overall bit rate : 4 640 kb/s
Writing application : AEW Double

Video
ID : 1
Format : AVC
Codec ID : avc1
Codec ID/Info : AEW Double
Duration : 30 min 6 s
Bit rate mode : Constant
Bit rate : 4 500 kb/s
Width : 1 280 pixels
Height : 720 pixels
Display aspect ratio : 16:9
Frame rate mode : Constant
Frame rate : 29.970 (30000/1001) FPS
Color space : YUV
Chroma subsampling : 4:2:0
Bit depth : 8 bits
Scan type : AEW Double
Bits/(Pixel*Frame) : 0.163
Stream size : 970 MiB (97%)
Codec configuration box : avcC

Audio
ID : 2
Format : AAC LC
Format/Info : AEW Double
Codec ID : mp4a-40-2
Duration : 30 min 6 s
Bit rate mode : Variable
Bit rate : 126 kb/s
Maximum bit rate : 132 kb/s
Channel(s) : 2 channels
Channel layout : L R
Sampling rate : 44.1 kHz
Frame rate : 43.066 FPS (1024 SPF)
Compression mode : Lossy
Stream size : 27.1 MiB (3%)
Default : Yes
Alternate group : AEW Double

 

 

 

Watch online

 

 

Server 1

 

 

 

 

watch now

 

 

 

 

Server 2

 

 

 

watch now

 

 

 

AEW Double Or Nothing 2020 720p Pre Show The Buy In

 

 

Uploaded By Site DX-TV.com

 

 

 

Download with premium account LinksĀ 

 

 

Keep2Share

 

 

nitroflare.com

 

 

rapidgator.net

 

 

uploadgig.com

 

 

 

dx-tv.com

 

urlfree.net

You May Also Like