WWE Undertaker The Last Ride S01E02 Chapter 2 720p

Watch WWE Undertaker The Last Ride S01E02 Chapter 2 The Redemption 720p DX-TV

 

Undertaker

 WWE Undertaker

 

 

 

WWE Undertaker The Last Ride S01E02 Chapter 2 720p

 

 

 

Complete name : WWE.Undertaker.The.Last.Ride.S01E02.Chapter.2.The.Redemption.720p.Hi.WEB.h264-HEEL.mp4
Format : MPEG-4
Format profile : Base Media
Codec ID : isom
File size : 1.48 GiB
Duration : 59 min 57 s
Overall bit rate : 3 527 kb/s
Writing application : Undertaker

Video
ID : 1
Format : AVC
Codec ID/Info :Undertaker
Duration : 59 min 57 s
Bit rate : 3 372 kb/s
Width : 1 280 pixels
Height : 720 pixels
Display aspect ratio : 16:9
Frame rate mode : Constant
Frame rate : 30.000 FPS
Color space : YUV
Chroma subsampling : 4:2:0
Bit depth : 8 bits
Scan type : Undertaker
Bits/(Pixel*Frame) : 0.122
Stream size : 1.39 GiB (94%)

Audio
ID : 2
Format : AAC LC
Format/Info : Undertaker
Codec ID : mp4a-40-2
Duration : 59 min 57 s
Bit rate mode : Constant
Bit rate : 192 kb/s
Channel(s) : 2 channels
Channel layout : L R
Sampling rate : 48.0 kHz
Frame rate : 46.875 FPS (1024 SPF)
Compression mode : Lossy
Stream size : 82.6 MiB (5%)
Default : Yes
Alternate group : Undertaker

 

 

 

Watch online

 

 

Server 1

 

 

 

 

watch now

 

 

 

 

Server 2

 

 

 

watch now

 

 

 

WWE Undertaker The Last Ride S01E02 Chapter 2 720p

 

 

Uploaded By Site DX-TV.com

 

 

 

Download with premium account Links 

 

 

Keep2Share

 

 

nitroflare.com

 

 

rapidgator.net

 

 

uploadgig.com

 

 

 

dx-tv.com

 

urlfree.net

Leave a Reply

Your email address will not be published. Required fields are marked *

This site uses Akismet to reduce spam. Learn how your comment data is processed.

%d bloggers like this: