WWE Undertaker The Last Ride Post Mortem S01E02

Watch WWE Undertaker The Last Ride Post Mortem S01E02 1080p HEEL DX-TV

 

 
WWE

 WWE Undertaker


 

WWE Undertaker The Last Ride Post Mortem S01E02

 

 

 

Complete name : WWE.Undertaker.The.Last.Ride.Post.Mortem.S01E02.1080p.WEB.h264-HEEL.mp4
Format : MPEG-4
Format profile : Base Media
Codec ID : isom
File size : 1.54 GiB
Duration : 27 min 50 s
Overall bit rate : 7 935 kb/s
Writing application : WWE

Video
ID : 1
Format : AVC
Format/Info : Advanced Video Codec
Codec ID : avc1
Codec ID/Info : WWE
Duration : 27 min 50 s
Bit rate : 7 808 kb/s
Width : 1 920 pixels
Height : 1 080 pixels
Display aspect ratio : 16:9
Frame rate mode : WWE
Frame rate : 30.000 FPS
Color space : YUV
Chroma subsampling : 4:2:0
Bit depth : 8 bits WWE
Scan type : Progressive
Bits/(Pixel*Frame) : 0.126
Stream size : 1.50 GiB (97%)

Audio
ID : 2
Format : AAC LC
Format/Info : WWE
Codec ID : mp4a-40-2
Duration : 27 min 50 s
Bit rate mode : Constant
Bit rate : 192 kb/s
Channel(s) : 2 channels
Channel layout : L R
Sampling rate : 48.0 kHz
Frame rate : 46.875 FPS (1024 SPF)
Compression mode : Lossy
Stream size : 37.8 MiB (2%)
Default : Yes
Alternate group : WWE

 

 

 

Watch online

 

 

Server 1

 

 

 

 

watch now

 

 

 

 

Server 2

 

 

 

watch now

 

 

 

WWE Undertaker The Last Ride Post Mortem S01E02

 

 

Uploaded By Site DX-TV.com

 

 

 

Download with premium account Links 

 

 

Keep2Share

 

 

nitroflare.com

 

 

rapidgator.net

 

 

uploadgig.com

 

 

 

dx-tv.com

 

urlfree.net

Leave a Reply

Your email address will not be published. Required fields are marked *

This site uses Akismet to reduce spam. Learn how your comment data is processed.

%d bloggers like this: