WWE The Best Of Raw Matches Of The Decade 2020

Watch WWE The Best Of Raw Matches Of The Decade 720p 2020 DX-TV

WWE

 WWE

 

 

WWE The Best Of Raw Matches Of The Decade 2020

 

 

Complete name : WWE.The.Best.Of.WWE.E22.The.Best.Raw.Matches.Of.The.Decade.720p.Lo.WEB.h264-HEEL.mp4
Format : MPEG-4
Format profile : Base Media
Codec ID : isom
File size : 3.55 GiB
Duration : 4 h 57 min
Overall bit rate mode : Variable
Overall bit rate : 1 705 kb/s
Writing application : WWE

Video
ID : 1
Format : AVC
Codec ID : avc1
Codec ID/Info : Advanced
Duration : 4 h 57 min
Bit rate : 1 512 kb/s
Width : 1 280 pixels
Height : 720 pixels
Display aspect ratio : 16:9
Frame rate mode : WWE
Frame rate : 30.000 FPS
Color space : YUV
Chroma subsampling : 4:2:0
Bit depth : 8 bits
Scan type : WWE
Bits/(Pixel*Frame) : 0.055
Stream size : 3.13 GiB (88%)

Audio
ID : 2
Format : AAC LC
Format/Info : WWE
Codec ID : mp4a-40-2
Duration : 4 h 57 min
Bit rate mode : Variable
Bit rate : 192 kb/s
Maximum bit rate : 521 kb/s
Channel(s) : 2 channels
Channel layout : WWE
Sampling rate : 48.0 kHz
Frame rate : 46.875 FPS (1024 SPF)
Compression mode : Lossy
Stream size : 411 MiB (11%)
Default : Yes
Alternate group : WWE

 

 

 

Watch online

 

 

Server 1

 

 

 

 

watch now

 

 

 

 

Server 2

 

 

 

watch now

 

 

 

WWE The Best Of Raw Matches Of The Decade 2020

 

 

Uploaded By Site DX-TV.com

 

 

 

Download with premium account LinksĀ 

 

 

Keep2Share

 

 

nitroflare.com

 

 

rapidgator.net

 

 

uploadgig.com

 

 

 

dx-tv.com

 

urlfree.net

You May Also Like