NOAH Stay Together Showdown Sugiura gun vs Kongoh 2020

Watch NOAH Stay Together Showdown Sugiura gun vs Kongoh 2020 05 03 DX-TV

NOAH

 NOAH

 

 

NOAH Stay Together Showdown Sugiura gun vs Kongoh 2020 05 03

 

Complete name : NOAH.Stay.Together.Showdown.Sugiura-gun.vs.Kongoh 2020.05.03.(Abema.TV).mp4
Format : MPEG-4
Format profile : Base Media
Codec ID : isom
File size : 2.82 GiB
Duration : 3 h 2 min
Overall bit rate : 2 211 kb/s
Writing application : NOAH

Video
ID : 1
Format : AVC
Codec ID/Info : Advanced
Duration : 3 h 2 min
Bit rate : 2 005 kb/s
Width : 1 280 pixels
Height : 720 pixels
 aspect ratio : 16:9
Frame rate mode : NOAH
Frame rate : 60.000 FPS
Color space : YUV
Chroma subsampling : 4:2:0
Bit depth : 8 bits
Scan type : NOAH
Bits/(Pixel*Frame) : NOAH
Stream size : 2.56 GiB (91%)

Audio
ID : 2
Format : AAC LC
Format/Info : NOAH
Codec ID : mp4a-40-2
Duration : 3 h 2 min
Bit rate mode : NOAH
Bit rate : 192 kb/s
Channel(s) : 2 channels
Channel layout : NOAH
Sampling rate : 44.1 kHz
Frame rate : 43.066 FPS (1024 SPF)
Compression mode : Lossy
Stream size : 251 MiB (9%)
Title : simple
Default : Yes
Alternate group : NOAH

 

 

 

Watch online

 

 

Server 1

 

 

 

 

watch now

 

 

 

 

Server 2

 

 

 

watch now

 

 

 

 

 

Uploaded By Site DX-TV.com

 

 

Download with Free Links 

 

 

1fichier.com

 

 

 

Download with premium account Links 

 

 

nitroflare.com

 

 

rapidgator.net

 

 

uploadgig.com

 

 

 

dx-tv.com

 

urlfree.net

Leave a Reply

Your email address will not be published. Required fields are marked *

This site uses Akismet to reduce spam. Learn how your comment data is processed.

%d bloggers like this: