WWE SmackDown 2021 08 06 1080p Free Replay

WWE SmackDown 2021 08 06 1080p NWCHD Free Replay DX-TV

WWE SmackDown

 WWE SmackDown

 

 

 

Download Links with premium High Speed


 

Dopapk

 

 

Show Links

 

http://shrt10.com/28oJZnS

[collapse]

 

 

Nitroflare

 

 

Show Links

 

http://shrt10.com/KXdHpy7i3

 

[collapse]

 

 

Rapidgator

 

 

Show Links

 

http://shrt10.com/FFHQ37lcZ

 

[collapse]

 

 

Uploaded

 

 

Show Links

 

http://shrt10.com/nXFX4KQ7

 

[collapse]

 

 

Watch online

 

Server 1

 

 

 

 

WWE SmackDown

 

 

 

 

Server-2

 

 

 

 

watch now

 

 

 

|Server-3

 

 

 

 

watch now

 

 

Uploaded By Site DX-TV.com

 

 

Show Info This Show

WWE SmackDown

 

Complete name : WWE.Friday.Night.SmackDown.2021.08.06.1080p.HDTV.x264-NWCHD.mp4
Format : MPEG-4
Format profile : Base Media
Codec ID : mp42
File size : 4.85 GiB
Duration : 1 h 24 min
Overall bit rate mode : Variable
Overall bit rate : 8 191 kb/s

Video
ID : 1
Format : AVC
Format/Info : Advanced Video
Duration : 1 h 24 min
Bit rate : 8 000 kb/s
Width : 1 920 pixels
Height : 1 080 pixels
Display aspect ratio : 16:9
Frame rate mode : Constant
Frame rate : 29.970 (30000/1001) FPS
Color space : YUV
Chroma subsampling : 4:2:0
Bit depth : 8 bits
Scan type : Progressive
Bits/(Pixel*Frame) : 0.129
Stream size : 4.73 GiB (98%)
Color range : Limited
Color primaries : BT.709
Transfer characteristics : BT.709
Matrix coefficients : BT.709
Codec configuration box : avc

WWE SmackDown

Audio
ID : 2
Format : AAC LC
Format/Info : Advanced Audio
Codec ID : mp4a-40-2
Duration : 1 h 24 min
Bit rate mode : Variable
Bit rate : 192 kb/s
Channel(s) : 2 channels
Channel layout : L R
Sampling rate : 48.0 kHz
Frame rate : 46.875 FPS (1024 SPF)
Compression mode : Lossy
Stream size : 116 MiB (2%)
Title : Stereo / Stereo
Language : English
Default : Yes
Alternate group : 1

WWE SmackDown

SmackDown results: Aug. 6, 2021

 

Bianca Belair was forced to deal with Sasha Banks and Zelina Vega
In the wake of Sasha Banks’ return and attack on SmackDown Women’s Champion Bianca Belair, The EST of WWE interrupted The Boss in the ring to ignite a war of words. When they started talking title matches, though, Zelina Vega emerged to hold Belair to her word by giving her a match. As a result, Bianca made it clear that she would take care of Banks at the Aug. 21 pay-per-view and Vega tonight on SmackDown! 

WWE SmackDown

Jey Uso def. Dominik Mysterio 
En route to his SmackDown Tag Team Championship rematch at SummerSlam, Dominik Mysterio was momentarily distracted when Rey Mysterio was forced to take out a meddling Jimmy Uso outside the ring. This opened the door for Jey to hit the Superkick and the Uso Splash for the victory. 

WWE SmackDown

King Nakamura def. Apollo Crews via disqualification 
Just when it looked as if King Nakamura might emerge victorious over Apollo Crews in an intriguing Championship Contender Match, Commander Azeeez suddenly pulled The Artist out of the ring and brought an end to the action by disqualification. When Azeez attempt to get in the squared circle after the bell, Nakamura hurled The Prince of Nigeria into his gigantic cohort. 

WWE SmackDown

Tegan Nox def. Tamina
In the wake of two straight Championship Contender victories by new SmackDown tandem Shotzi & Nox against the WWE Women’s Tag Team Champions, Tegan Nox overcame Tamina one-on-one when a shot fired from Shotzi’s tank distracted the titleholder long enough for Nox to roll her up for the quick pin.

WWE SmackDown

Edge challenged Seth Rollins to a SummerSlam showdown
Although Seth Rollins didn’t show up to to face Edge in person, he emerged via satellite to engage in a war of words. While Rollins chose to laugh at The Rated-R Superstar, Edge challenged The SmackDown Savior to a highly personal matchup at SummerSlam. And when The Ultimate Opportunist made Rollins mad enough by calling him “Edge-lite,” the enraged Architect finally agreed. 

The Street Profits def. Dolph Ziggler & Robert Roode
Angelo Dawkins and his returning tag team partner Montez Ford hit the ground running against The Dirty Dawgs on the back of Ford’s gravity-defying splash off the top rope that has been sorely missed!

WWE SmackDown

Bianca Belair def. Zelina Vega
Despite an early distraction by Sasha Banks, The EST of WWE emerged victorious over Zelina Vega in a hard-fought Championship Contender Match with the K.O.D.

Finn Bálor def. Baron Corbin
After Baron Corbin prevented Finn Bálor from getting a Universal Title opportunity at SummerSlam, The Prince looked to teach Corbin a lesson that he’d never forget and scored the victory with Coup de Grace.

WWE SmackDown

Roman Reigns and The Usos executed a 3-on-1 beatdown on Finn Bálor
When Universal Champion Roman Reigns warned Finn Bálor to stop using his name in the closing moments of SmackDown, The Prince responded by shoving the The Head of the Table out of the ring while Reigns was making his exit. Moments later, The Usos attacked from behind, and Reigns decided to take his leave. When Bálor started to get the best of Jimmy & Jey, however, The Head of the Table returned, and the 3-on-1 onslaught of The Bloodline was too much, as Reigns put Finn out with the Guillotine. 

WWE SmackDown

Complete name : WWE.Friday.Night.SmackDown.2021.08.06.1080p.HDTV.x264-NWCHD.mp4
Format : MPEG-4
Format profile : Base Media
Codec ID : mp42
File size : 4.85 GiB
Duration : 1 h 24 min
Overall bit rate mode : Variable
Overall bit rate : 8 191 kb/s

Video
ID : 1
Format : AVC
Format/Info : Advanced Video
Duration : 1 h 24 min
Bit rate : 8 000 kb/s
Width : 1 920 pixels
Height : 1 080 pixels
Display aspect ratio : 16:9
Frame rate mode : Constant
Frame rate : 29.970 (30000/1001) FPS
Color space : YUV
Chroma subsampling : 4:2:0
Bit depth : 8 bits
Scan type : Progressive
Bits/(Pixel*Frame) : 0.129
Stream size : 4.73 GiB (98%)
Color range : Limited
Color primaries : BT.709
Transfer characteristics : BT.709
Matrix coefficients : BT.709
Codec configuration box : avc

WWE SmackDown

Audio
ID : 2
Format : AAC LC
Format/Info : Advanced Audio
Codec ID : mp4a-40-2
Duration : 1 h 24 min
Bit rate mode : Variable
Bit rate : 192 kb/s
Channel(s) : 2 channels
Channel layout : L R
Sampling rate : 48.0 kHz
Frame rate : 46.875 FPS (1024 SPF)
Compression mode : Lossy
Stream size : 116 MiB (2%)
Title : Stereo / Stereo
Language : English
Default : Yes
Alternate group : 1

WWE SmackDown

SmackDown results: Aug. 6, 2021

 

Bianca Belair was forced to deal with Sasha Banks and Zelina Vega
In the wake of Sasha Banks’ return and attack on SmackDown Women’s Champion Bianca Belair, The EST of WWE interrupted The Boss in the ring to ignite a war of words. When they started talking title matches, though, Zelina Vega emerged to hold Belair to her word by giving her a match. As a result, Bianca made it clear that she would take care of Banks at the Aug. 21 pay-per-view and Vega tonight on SmackDown! 

WWE SmackDown

Jey Uso def. Dominik Mysterio 
En route to his SmackDown Tag Team Championship rematch at SummerSlam, Dominik Mysterio was momentarily distracted when Rey Mysterio was forced to take out a meddling Jimmy Uso outside the ring. This opened the door for Jey to hit the Superkick and the Uso Splash for the victory. 

WWE SmackDown

King Nakamura def. Apollo Crews via disqualification 
Just when it looked as if King Nakamura might emerge victorious over Apollo Crews in an intriguing Championship Contender Match, Commander Azeeez suddenly pulled The Artist out of the ring and brought an end to the action by disqualification. When Azeez attempt to get in the squared circle after the bell, Nakamura hurled The Prince of Nigeria into his gigantic cohort. 

WWE SmackDown

Tegan Nox def. Tamina
In the wake of two straight Championship Contender victories by new SmackDown tandem Shotzi & Nox against the WWE Women’s Tag Team Champions, Tegan Nox overcame Tamina one-on-one when a shot fired from Shotzi’s tank distracted the titleholder long enough for Nox to roll her up for the quick pin.

WWE SmackDown

Edge challenged Seth Rollins to a SummerSlam showdown
Although Seth Rollins didn’t show up to to face Edge in person, he emerged via satellite to engage in a war of words. While Rollins chose to laugh at The Rated-R Superstar, Edge challenged The SmackDown Savior to a highly personal matchup at SummerSlam. And when The Ultimate Opportunist made Rollins mad enough by calling him “Edge-lite,” the enraged Architect finally agreed. 

The Street Profits def. Dolph Ziggler & Robert Roode
Angelo Dawkins and his returning tag team partner Montez Ford hit the ground running against The Dirty Dawgs on the back of Ford’s gravity-defying splash off the top rope that has been sorely missed!

WWE SmackDown

Bianca Belair def. Zelina Vega
Despite an early distraction by Sasha Banks, The EST of WWE emerged victorious over Zelina Vega in a hard-fought Championship Contender Match with the K.O.D.

Finn Bálor def. Baron Corbin
After Baron Corbin prevented Finn Bálor from getting a Universal Title opportunity at SummerSlam, The Prince looked to teach Corbin a lesson that he’d never forget and scored the victory with Coup de Grace.

WWE SmackDown

Roman Reigns and The Usos executed a 3-on-1 beatdown on Finn Bálor
When Universal Champion Roman Reigns warned Finn Bálor to stop using his name in the closing moments of SmackDown, The Prince responded by shoving the The Head of the Table out of the ring while Reigns was making his exit. Moments later, The Usos attacked from behind, and Reigns decided to take his leave. When Bálor started to get the best of Jimmy & Jey, however, The Head of the Table returned, and the 3-on-1 onslaught of The Bloodline was too much, as Reigns put Finn out with the Guillotine. 

WWE SmackDown

Complete name : WWE.Friday.Night.SmackDown.2021.08.06.1080p.HDTV.x264-NWCHD.mp4
Format : MPEG-4
Format profile : Base Media
Codec ID : mp42
File size : 4.85 GiB
Duration : 1 h 24 min
Overall bit rate mode : Variable
Overall bit rate : 8 191 kb/s

Video
ID : 1
Format : AVC
Format/Info : Advanced Video
Duration : 1 h 24 min
Bit rate : 8 000 kb/s
Width : 1 920 pixels
Height : 1 080 pixels
Display aspect ratio : 16:9
Frame rate mode : Constant
Frame rate : 29.970 (30000/1001) FPS
Color space : YUV
Chroma subsampling : 4:2:0
Bit depth : 8 bits
Scan type : Progressive
Bits/(Pixel*Frame) : 0.129
Stream size : 4.73 GiB (98%)
Color range : Limited
Color primaries : BT.709
Transfer characteristics : BT.709
Matrix coefficients : BT.709
Codec configuration box : avc

WWE SmackDown

Audio
ID : 2
Format : AAC LC
Format/Info : Advanced Audio
Codec ID : mp4a-40-2
Duration : 1 h 24 min
Bit rate mode : Variable
Bit rate : 192 kb/s
Channel(s) : 2 channels
Channel layout : L R
Sampling rate : 48.0 kHz
Frame rate : 46.875 FPS (1024 SPF)
Compression mode : Lossy
Stream size : 116 MiB (2%)
Title : Stereo / Stereo
Language : English
Default : Yes
Alternate group : 1

WWE SmackDown

SmackDown results: Aug. 6, 2021

 

Bianca Belair was forced to deal with Sasha Banks and Zelina Vega
In the wake of Sasha Banks’ return and attack on SmackDown Women’s Champion Bianca Belair, The EST of WWE interrupted The Boss in the ring to ignite a war of words. When they started talking title matches, though, Zelina Vega emerged to hold Belair to her word by giving her a match. As a result, Bianca made it clear that she would take care of Banks at the Aug. 21 pay-per-view and Vega tonight on SmackDown! 

WWE SmackDown

Jey Uso def. Dominik Mysterio 
En route to his SmackDown Tag Team Championship rematch at SummerSlam, Dominik Mysterio was momentarily distracted when Rey Mysterio was forced to take out a meddling Jimmy Uso outside the ring. This opened the door for Jey to hit the Superkick and the Uso Splash for the victory. 

WWE SmackDown

King Nakamura def. Apollo Crews via disqualification 
Just when it looked as if King Nakamura might emerge victorious over Apollo Crews in an intriguing Championship Contender Match, Commander Azeeez suddenly pulled The Artist out of the ring and brought an end to the action by disqualification. When Azeez attempt to get in the squared circle after the bell, Nakamura hurled The Prince of Nigeria into his gigantic cohort. 

WWE SmackDown

Tegan Nox def. Tamina
In the wake of two straight Championship Contender victories by new SmackDown tandem Shotzi & Nox against the WWE Women’s Tag Team Champions, Tegan Nox overcame Tamina one-on-one when a shot fired from Shotzi’s tank distracted the titleholder long enough for Nox to roll her up for the quick pin.

WWE SmackDown

Edge challenged Seth Rollins to a SummerSlam showdown
Although Seth Rollins didn’t show up to to face Edge in person, he emerged via satellite to engage in a war of words. While Rollins chose to laugh at The Rated-R Superstar, Edge challenged The SmackDown Savior to a highly personal matchup at SummerSlam. And when The Ultimate Opportunist made Rollins mad enough by calling him “Edge-lite,” the enraged Architect finally agreed. 

The Street Profits def. Dolph Ziggler & Robert Roode
Angelo Dawkins and his returning tag team partner Montez Ford hit the ground running against The Dirty Dawgs on the back of Ford’s gravity-defying splash off the top rope that has been sorely missed!

WWE SmackDown

Bianca Belair def. Zelina Vega
Despite an early distraction by Sasha Banks, The EST of WWE emerged victorious over Zelina Vega in a hard-fought Championship Contender Match with the K.O.D.

Finn Bálor def. Baron Corbin
After Baron Corbin prevented Finn Bálor from getting a Universal Title opportunity at SummerSlam, The Prince looked to teach Corbin a lesson that he’d never forget and scored the victory with Coup de Grace.

WWE SmackDown

Roman Reigns and The Usos executed a 3-on-1 beatdown on Finn Bálor
When Universal Champion Roman Reigns warned Finn Bálor to stop using his name in the closing moments of SmackDown, The Prince responded by shoving the The Head of the Table out of the ring while Reigns was making his exit. Moments later, The Usos attacked from behind, and Reigns decided to take his leave. When Bálor started to get the best of Jimmy & Jey, however, The Head of the Table returned, and the 3-on-1 onslaught of The Bloodline was too much, as Reigns put Finn out with the Guillotine. 

WWE SmackDown

Complete name : WWE.Friday.Night.SmackDown.2021.08.06.1080p.HDTV.x264-NWCHD.mp4
Format : MPEG-4
Format profile : Base Media
Codec ID : mp42
File size : 4.85 GiB
Duration : 1 h 24 min
Overall bit rate mode : Variable
Overall bit rate : 8 191 kb/s

Video
ID : 1
Format : AVC
Format/Info : Advanced Video
Duration : 1 h 24 min
Bit rate : 8 000 kb/s
Width : 1 920 pixels
Height : 1 080 pixels
Display aspect ratio : 16:9
Frame rate mode : Constant
Frame rate : 29.970 (30000/1001) FPS
Color space : YUV
Chroma subsampling : 4:2:0
Bit depth : 8 bits
Scan type : Progressive
Bits/(Pixel*Frame) : 0.129
Stream size : 4.73 GiB (98%)
Color range : Limited
Color primaries : BT.709
Transfer characteristics : BT.709
Matrix coefficients : BT.709
Codec configuration box : avc

WWE SmackDown

Audio
ID : 2
Format : AAC LC
Format/Info : Advanced Audio
Codec ID : mp4a-40-2
Duration : 1 h 24 min
Bit rate mode : Variable
Bit rate : 192 kb/s
Channel(s) : 2 channels
Channel layout : L R
Sampling rate : 48.0 kHz
Frame rate : 46.875 FPS (1024 SPF)
Compression mode : Lossy
Stream size : 116 MiB (2%)
Title : Stereo / Stereo
Language : English
Default : Yes
Alternate group : 1

WWE SmackDown

SmackDown results: Aug. 6, 2021

 

Bianca Belair was forced to deal with Sasha Banks and Zelina Vega
In the wake of Sasha Banks’ return and attack on SmackDown Women’s Champion Bianca Belair, The EST of WWE interrupted The Boss in the ring to ignite a war of words. When they started talking title matches, though, Zelina Vega emerged to hold Belair to her word by giving her a match. As a result, Bianca made it clear that she would take care of Banks at the Aug. 21 pay-per-view and Vega tonight on SmackDown! 

WWE SmackDown

Jey Uso def. Dominik Mysterio 
En route to his SmackDown Tag Team Championship rematch at SummerSlam, Dominik Mysterio was momentarily distracted when Rey Mysterio was forced to take out a meddling Jimmy Uso outside the ring. This opened the door for Jey to hit the Superkick and the Uso Splash for the victory. 

WWE SmackDown

King Nakamura def. Apollo Crews via disqualification 
Just when it looked as if King Nakamura might emerge victorious over Apollo Crews in an intriguing Championship Contender Match, Commander Azeeez suddenly pulled The Artist out of the ring and brought an end to the action by disqualification. When Azeez attempt to get in the squared circle after the bell, Nakamura hurled The Prince of Nigeria into his gigantic cohort. 

WWE SmackDown

Tegan Nox def. Tamina
In the wake of two straight Championship Contender victories by new SmackDown tandem Shotzi & Nox against the WWE Women’s Tag Team Champions, Tegan Nox overcame Tamina one-on-one when a shot fired from Shotzi’s tank distracted the titleholder long enough for Nox to roll her up for the quick pin.

WWE SmackDown

Edge challenged Seth Rollins to a SummerSlam showdown
Although Seth Rollins didn’t show up to to face Edge in person, he emerged via satellite to engage in a war of words. While Rollins chose to laugh at The Rated-R Superstar, Edge challenged The SmackDown Savior to a highly personal matchup at SummerSlam. And when The Ultimate Opportunist made Rollins mad enough by calling him “Edge-lite,” the enraged Architect finally agreed. 

The Street Profits def. Dolph Ziggler & Robert Roode
Angelo Dawkins and his returning tag team partner Montez Ford hit the ground running against The Dirty Dawgs on the back of Ford’s gravity-defying splash off the top rope that has been sorely missed!

WWE SmackDown

Bianca Belair def. Zelina Vega
Despite an early distraction by Sasha Banks, The EST of WWE emerged victorious over Zelina Vega in a hard-fought Championship Contender Match with the K.O.D.

Finn Bálor def. Baron Corbin
After Baron Corbin prevented Finn Bálor from getting a Universal Title opportunity at SummerSlam, The Prince looked to teach Corbin a lesson that he’d never forget and scored the victory with Coup de Grace.

WWE SmackDown

Roman Reigns and The Usos executed a 3-on-1 beatdown on Finn Bálor
When Universal Champion Roman Reigns warned Finn Bálor to stop using his name in the closing moments of SmackDown, The Prince responded by shoving the The Head of the Table out of the ring while Reigns was making his exit. Moments later, The Usos attacked from behind, and Reigns decided to take his leave. When Bálor started to get the best of Jimmy & Jey, however, The Head of the Table returned, and the 3-on-1 onslaught of The Bloodline was too much, as Reigns put Finn out with the Guillotine. 

WWE SmackDown

Complete name : WWE.Friday.Night.SmackDown.2021.08.06.1080p.HDTV.x264-NWCHD.mp4
Format : MPEG-4
Format profile : Base Media
Codec ID : mp42
File size : 4.85 GiB
Duration : 1 h 24 min
Overall bit rate mode : Variable
Overall bit rate : 8 191 kb/s

Video
ID : 1
Format : AVC
Format/Info : Advanced Video
Duration : 1 h 24 min
Bit rate : 8 000 kb/s
Width : 1 920 pixels
Height : 1 080 pixels
Display aspect ratio : 16:9
Frame rate mode : Constant
Frame rate : 29.970 (30000/1001) FPS
Color space : YUV
Chroma subsampling : 4:2:0
Bit depth : 8 bits
Scan type : Progressive
Bits/(Pixel*Frame) : 0.129
Stream size : 4.73 GiB (98%)
Color range : Limited
Color primaries : BT.709
Transfer characteristics : BT.709
Matrix coefficients : BT.709
Codec configuration box : avc

WWE SmackDown

Audio
ID : 2
Format : AAC LC
Format/Info : Advanced Audio
Codec ID : mp4a-40-2
Duration : 1 h 24 min
Bit rate mode : Variable
Bit rate : 192 kb/s
Channel(s) : 2 channels
Channel layout : L R
Sampling rate : 48.0 kHz
Frame rate : 46.875 FPS (1024 SPF)
Compression mode : Lossy
Stream size : 116 MiB (2%)
Title : Stereo / Stereo
Language : English
Default : Yes
Alternate group : 1

WWE SmackDown

SmackDown results: Aug. 6, 2021

 

Bianca Belair was forced to deal with Sasha Banks and Zelina Vega
In the wake of Sasha Banks’ return and attack on SmackDown Women’s Champion Bianca Belair, The EST of WWE interrupted The Boss in the ring to ignite a war of words. When they started talking title matches, though, Zelina Vega emerged to hold Belair to her word by giving her a match. As a result, Bianca made it clear that she would take care of Banks at the Aug. 21 pay-per-view and Vega tonight on SmackDown! 

WWE SmackDown

Jey Uso def. Dominik Mysterio 
En route to his SmackDown Tag Team Championship rematch at SummerSlam, Dominik Mysterio was momentarily distracted when Rey Mysterio was forced to take out a meddling Jimmy Uso outside the ring. This opened the door for Jey to hit the Superkick and the Uso Splash for the victory. 

WWE SmackDown

King Nakamura def. Apollo Crews via disqualification 
Just when it looked as if King Nakamura might emerge victorious over Apollo Crews in an intriguing Championship Contender Match, Commander Azeeez suddenly pulled The Artist out of the ring and brought an end to the action by disqualification. When Azeez attempt to get in the squared circle after the bell, Nakamura hurled The Prince of Nigeria into his gigantic cohort. 

WWE SmackDown

Tegan Nox def. Tamina
In the wake of two straight Championship Contender victories by new SmackDown tandem Shotzi & Nox against the WWE Women’s Tag Team Champions, Tegan Nox overcame Tamina one-on-one when a shot fired from Shotzi’s tank distracted the titleholder long enough for Nox to roll her up for the quick pin.

WWE SmackDown

Edge challenged Seth Rollins to a SummerSlam showdown
Although Seth Rollins didn’t show up to to face Edge in person, he emerged via satellite to engage in a war of words. While Rollins chose to laugh at The Rated-R Superstar, Edge challenged The SmackDown Savior to a highly personal matchup at SummerSlam. And when The Ultimate Opportunist made Rollins mad enough by calling him “Edge-lite,” the enraged Architect finally agreed. 

WWE SmackDown

The Street Profits def. Dolph Ziggler & Robert Roode
Angelo Dawkins and his returning tag team partner Montez Ford hit the ground running against The Dirty Dawgs on the back of Ford’s gravity-defying splash off the top rope that has been sorely missed!

WWE SmackDown

Bianca Belair def. Zelina Vega
Despite an early distraction by Sasha Banks, The EST of WWE emerged victorious over Zelina Vega in a hard-fought Championship Contender Match with the K.O.D.

Finn Bálor def. Baron Corbin
After Baron Corbin prevented Finn Bálor from getting a Universal Title opportunity at SummerSlam, The Prince looked to teach Corbin a lesson that he’d never forget and scored the victory with Coup de Grace.

WWE SmackDown

Roman Reigns and The Usos executed a 3-on-1 beatdown on Finn Bálor
When Universal Champion Roman Reigns warned Finn Bálor to stop using his name in the closing moments of SmackDown, The Prince responded by shoving the The Head of the Table out of the ring while Reigns was making his exit. Moments later, The Usos attacked from behind, and Reigns decided to take his leave. When Bálor started to get the best of Jimmy & Jey, however, The Head of the Table returned, and the 3-on-1 onslaught of The Bloodline was too much, as Reigns put Finn out with the Guillotine. 

WWE SmackDown

 

[collapse]

 

 

https://dx-tv.com/

You May Also Like

Leave a Reply

Your email address will not be published. Required fields are marked *

This site uses Akismet to reduce spam. Learn how your comment data is processed.