Cage Warriors 126 720p Online Free Replay

Cage Warriors 126 720p Online Free Replay DX-TV

Cage Warriors 126

 Cage Warriors 126

 

 

 

Download Links with premium High Speed


 

Dopapk

 

 

Show Links

 

http://shrt10.com/MVR9WeT4m
http://shrt10.com/K3Xvt

 

[collapse]

 

 

Nitroflare

 

 

Show Links

 

http://shrt10.com/eS7lp
http://shrt10.com/N78wGkpzG

 

[collapse]

 

 

Rapidgator

 

 

Show Links

 

http://shrt10.com/RLZeN
http://shrt10.com/xas6IMRv

 

[collapse]

 

 

Uploaded

 

 

Show Links

 

http://shrt10.com/ZAmnh
http://shrt10.com/ucLMoxhx

 

[collapse]

 

 

Watch online

 

Server 1

 

 

 

 

Cage Warriors 126

watch now

 

 

 

 

Server-2

 

 

 

 

Cage Warriors 126

watch now

 

 

 

|Server-3

 

 

 

 

watch now

Cage Warriors 126

 

 

Uploaded By Site DX-TV.com

 

 

Show Info This Show

Cage Warriors 126

 

General
Complete name : Cage.Warriors.126.720p.WEB-By DX-TV.com.mp4
Format : MPEG-4
Format profile : Base Media
Codec ID : isom
File size : 1.54 GiB
Duration : 2 h 14 min
Overall bit rate mode : Variable
Overall bit rate : 1 639 kb/s

Video
ID : 1
Format : AVC
Format/Info : Advanced Video
Duration : 2 h 14 min
Bit rate : 1 512 kb/s
Width : 1 280 pixels
Height : 720 pixels
Display aspect ratio : 16:9
Frame rate mode : Constant
Frame rate : 30.000 FPS
Color space : YUV
Chroma subsampling : 4:2:0
Bit depth : 8 bits
Scan type : Progressive
Bits/(Pixel*Frame) : 0.055
Stream size : 1.42 GiB (92%)

Cage Warriors 126

Audio
ID : 2
Format : AAC LC
Format/Info : Advanced Audio
Codec ID : mp4a-40-2
Duration : 2 h 14 min
Bit rate mode : Variable
Bit rate : 132 kb/s
Channel(s) : 2 channels
Channel layout : L R
Sampling rate : 48.0 kHz
Frame rate : 46.875 FPS
Compression mode : Lossy
Stream size : 124 MiB (8%)
Default : Yes
Alternate group : 1

Complete name : Cage.Warriors.126.Prelims.720p.WEB–By DX-TV.com.mp4
Format : MPEG-4
Format profile : Base Media
Codec ID : isom
File size : 887 MiB
Duration : 1 h 15 min
Overall bit rate : 1 641 kb/s

Cage Warriors 126

Video
ID : 1
Format : AVC
Format/Info : Advanced Video
Duration : 1 h 15 min
Bit rate : 1 512 kb/s
Width : 1 280 pixels
Height : 720 pixels
Display aspect ratio : 16:9
Frame rate mode : Constant
Frame rate : 30.000 FPS
Color space : YUV
Chroma subsampling : 4:2:0
Bit depth : 8 bits
Scan type : Progressive
Bits/(Pixel*Frame) : 0.055
Stream size : 813 MiB (92%)

Cage Warriors 126

Audio
ID : 2
Format : AAC LC
Format/Info : Advanced Audio
Codec ID : mp4a-40-2
Duration : 1 h 15 min
Bit rate mode : Constant
Bit rate : 128 kb/s
Channel(s) : 2 channels
Channel layout : L R
Sampling rate : 48.0 kHz
Frame rate : 46.875 FPS (1024 SPF)
Compression mode : Lossy
Stream size : 69.4 MiB (8%)
Default : Yes
Alternate group : 1

Cage Warriors 126

General
Complete name : Cage.Warriors.126.720p.WEB-By DX-TV.com.mp4
Format : MPEG-4
Format profile : Base Media
Codec ID : isom
File size : 1.54 GiB
Duration : 2 h 14 min
Overall bit rate mode : Variable
Overall bit rate : 1 639 kb/s

Video
ID : 1
Format : AVC
Format/Info : Advanced Video
Duration : 2 h 14 min
Bit rate : 1 512 kb/s
Width : 1 280 pixels
Height : 720 pixels
Display aspect ratio : 16:9
Frame rate mode : Constant
Frame rate : 30.000 FPS
Color space : YUV
Chroma subsampling : 4:2:0
Bit depth : 8 bits
Scan type : Progressive
Bits/(Pixel*Frame) : 0.055
Stream size : 1.42 GiB (92%)

Cage Warriors 126

Audio
ID : 2
Format : AAC LC
Format/Info : Advanced Audio
Codec ID : mp4a-40-2
Duration : 2 h 14 min
Bit rate mode : Variable
Bit rate : 132 kb/s
Channel(s) : 2 channels
Channel layout : L R
Sampling rate : 48.0 kHz
Frame rate : 46.875 FPS
Compression mode : Lossy
Stream size : 124 MiB (8%)
Default : Yes
Alternate group : 1

Complete name : Cage.Warriors.126.Prelims.720p.WEB–By DX-TV.com.mp4
Format : MPEG-4
Format profile : Base Media
Codec ID : isom
File size : 887 MiB
Duration : 1 h 15 min
Overall bit rate : 1 641 kb/s

Cage Warriors 126

Video
ID : 1
Format : AVC
Format/Info : Advanced Video
Duration : 1 h 15 min
Bit rate : 1 512 kb/s
Width : 1 280 pixels
Height : 720 pixels
Display aspect ratio : 16:9
Frame rate mode : Constant
Frame rate : 30.000 FPS
Color space : YUV
Chroma subsampling : 4:2:0
Bit depth : 8 bits
Scan type : Progressive
Bits/(Pixel*Frame) : 0.055
Stream size : 813 MiB (92%)

Cage Warriors 126

Audio
ID : 2
Format : AAC LC
Format/Info : Advanced Audio
Codec ID : mp4a-40-2
Duration : 1 h 15 min
Bit rate mode : Constant
Bit rate : 128 kb/s
Channel(s) : 2 channels
Channel layout : L R
Sampling rate : 48.0 kHz
Frame rate : 46.875 FPS (1024 SPF)
Compression mode : Lossy
Stream size : 69.4 MiB (8%)
Default : Yes
Alternate group : 1

Cage Warriors 126

General
Complete name : Cage.Warriors.126.720p.WEB-By DX-TV.com.mp4
Format : MPEG-4
Format profile : Base Media
Codec ID : isom
File size : 1.54 GiB
Duration : 2 h 14 min
Overall bit rate mode : Variable
Overall bit rate : 1 639 kb/s

Video
ID : 1
Format : AVC
Format/Info : Advanced Video
Duration : 2 h 14 min
Bit rate : 1 512 kb/s
Width : 1 280 pixels
Height : 720 pixels
Display aspect ratio : 16:9
Frame rate mode : Constant
Frame rate : 30.000 FPS
Color space : YUV
Chroma subsampling : 4:2:0
Bit depth : 8 bits
Scan type : Progressive
Bits/(Pixel*Frame) : 0.055
Stream size : 1.42 GiB (92%)

Cage Warriors 126

Audio
ID : 2
Format : AAC LC
Format/Info : Advanced Audio
Codec ID : mp4a-40-2
Duration : 2 h 14 min
Bit rate mode : Variable
Bit rate : 132 kb/s
Channel(s) : 2 channels
Channel layout : L R
Sampling rate : 48.0 kHz
Frame rate : 46.875 FPS
Compression mode : Lossy
Stream size : 124 MiB (8%)
Default : Yes
Alternate group : 1

Complete name : Cage.Warriors.126.Prelims.720p.WEB–By DX-TV.com.mp4
Format : MPEG-4
Format profile : Base Media
Codec ID : isom
File size : 887 MiB
Duration : 1 h 15 min
Overall bit rate : 1 641 kb/s

Cage Warriors 126

Video
ID : 1
Format : AVC
Format/Info : Advanced Video
Duration : 1 h 15 min
Bit rate : 1 512 kb/s
Width : 1 280 pixels
Height : 720 pixels
Display aspect ratio : 16:9
Frame rate mode : Constant
Frame rate : 30.000 FPS
Color space : YUV
Chroma subsampling : 4:2:0
Bit depth : 8 bits
Scan type : Progressive
Bits/(Pixel*Frame) : 0.055
Stream size : 813 MiB (92%)

Cage Warriors 126

Audio
ID : 2
Format : AAC LC
Format/Info : Advanced Audio
Codec ID : mp4a-40-2
Duration : 1 h 15 min
Bit rate mode : Constant
Bit rate : 128 kb/s
Channel(s) : 2 channels
Channel layout : L R
Sampling rate : 48.0 kHz
Frame rate : 46.875 FPS (1024 SPF)
Compression mode : Lossy
Stream size : 69.4 MiB (8%)
Default : Yes
Alternate group : 1

Cage Warriors 126

General
Complete name : Cage.Warriors.126.720p.WEB-By DX-TV.com.mp4
Format : MPEG-4
Format profile : Base Media
Codec ID : isom
File size : 1.54 GiB
Duration : 2 h 14 min
Overall bit rate mode : Variable
Overall bit rate : 1 639 kb/s

Video
ID : 1
Format : AVC
Format/Info : Advanced Video
Duration : 2 h 14 min
Bit rate : 1 512 kb/s
Width : 1 280 pixels
Height : 720 pixels
Display aspect ratio : 16:9
Frame rate mode : Constant
Frame rate : 30.000 FPS
Color space : YUV
Chroma subsampling : 4:2:0
Bit depth : 8 bits
Scan type : Progressive
Bits/(Pixel*Frame) : 0.055
Stream size : 1.42 GiB (92%)

Cage Warriors 126

Audio
ID : 2
Format : AAC LC
Format/Info : Advanced Audio
Codec ID : mp4a-40-2
Duration : 2 h 14 min
Bit rate mode : Variable
Bit rate : 132 kb/s
Channel(s) : 2 channels
Channel layout : L R
Sampling rate : 48.0 kHz
Frame rate : 46.875 FPS
Compression mode : Lossy
Stream size : 124 MiB (8%)
Default : Yes
Alternate group : 1

Complete name : Cage.Warriors.126.Prelims.720p.WEB–By DX-TV.com.mp4
Format : MPEG-4
Format profile : Base Media
Codec ID : isom
File size : 887 MiB
Duration : 1 h 15 min
Overall bit rate : 1 641 kb/s

Cage Warriors 126

Video
ID : 1
Format : AVC
Format/Info : Advanced Video
Duration : 1 h 15 min
Bit rate : 1 512 kb/s
Width : 1 280 pixels
Height : 720 pixels
Display aspect ratio : 16:9
Frame rate mode : Constant
Frame rate : 30.000 FPS
Color space : YUV
Chroma subsampling : 4:2:0
Bit depth : 8 bits
Scan type : Progressive
Bits/(Pixel*Frame) : 0.055
Stream size : 813 MiB (92%)

Cage Warriors 126

Audio
ID : 2
Format : AAC LC
Format/Info : Advanced Audio
Codec ID : mp4a-40-2
Duration : 1 h 15 min
Bit rate mode : Constant
Bit rate : 128 kb/s
Channel(s) : 2 channels
Channel layout : L R
Sampling rate : 48.0 kHz
Frame rate : 46.875 FPS (1024 SPF)
Compression mode : Lossy
Stream size : 69.4 MiB (8%)
Default : Yes
Alternate group : 1

Cage Warriors 126

General
Complete name : Cage.Warriors.126.720p.WEB-By DX-TV.com.mp4
Format : MPEG-4
Format profile : Base Media
Codec ID : isom
File size : 1.54 GiB
Duration : 2 h 14 min
Overall bit rate mode : Variable
Overall bit rate : 1 639 kb/s

Video
ID : 1
Format : AVC
Format/Info : Advanced Video
Duration : 2 h 14 min
Bit rate : 1 512 kb/s
Width : 1 280 pixels
Height : 720 pixels
Display aspect ratio : 16:9
Frame rate mode : Constant
Frame rate : 30.000 FPS
Color space : YUV
Chroma subsampling : 4:2:0
Bit depth : 8 bits
Scan type : Progressive
Bits/(Pixel*Frame) : 0.055
Stream size : 1.42 GiB (92%)

Cage Warriors 126

Audio
ID : 2
Format : AAC LC
Format/Info : Advanced Audio
Codec ID : mp4a-40-2
Duration : 2 h 14 min
Bit rate mode : Variable
Bit rate : 132 kb/s
Channel(s) : 2 channels
Channel layout : L R
Sampling rate : 48.0 kHz
Frame rate : 46.875 FPS
Compression mode : Lossy
Stream size : 124 MiB (8%)
Default : Yes
Alternate group : 1

Complete name : Cage.Warriors.126.Prelims.720p.WEB–By DX-TV.com.mp4
Format : MPEG-4
Format profile : Base Media
Codec ID : isom
File size : 887 MiB
Duration : 1 h 15 min
Overall bit rate : 1 641 kb/s

Cage Warriors 126

Video
ID : 1
Format : AVC
Format/Info : Advanced Video
Duration : 1 h 15 min
Bit rate : 1 512 kb/s
Width : 1 280 pixels
Height : 720 pixels
Display aspect ratio : 16:9
Frame rate mode : Constant
Frame rate : 30.000 FPS
Color space : YUV
Chroma subsampling : 4:2:0
Bit depth : 8 bits
Scan type : Progressive
Bits/(Pixel*Frame) : 0.055
Stream size : 813 MiB (92%)

Cage Warriors 126

Audio
ID : 2
Format : AAC LC
Format/Info : Advanced Audio
Codec ID : mp4a-40-2
Duration : 1 h 15 min
Bit rate mode : Constant
Bit rate : 128 kb/s
Channel(s) : 2 channels
Channel layout : L R
Sampling rate : 48.0 kHz
Frame rate : 46.875 FPS (1024 SPF)
Compression mode : Lossy
Stream size : 69.4 MiB (8%)
Default : Yes
Alternate group : 1

Cage Warriors 126

General
Complete name : Cage.Warriors.126.720p.WEB-By DX-TV.com.mp4
Format : MPEG-4
Format profile : Base Media
Codec ID : isom
File size : 1.54 GiB
Duration : 2 h 14 min
Overall bit rate mode : Variable
Overall bit rate : 1 639 kb/s

Video
ID : 1
Format : AVC
Format/Info : Advanced Video
Duration : 2 h 14 min
Bit rate : 1 512 kb/s
Width : 1 280 pixels
Height : 720 pixels
Display aspect ratio : 16:9
Frame rate mode : Constant
Frame rate : 30.000 FPS
Color space : YUV
Chroma subsampling : 4:2:0
Bit depth : 8 bits
Scan type : Progressive
Bits/(Pixel*Frame) : 0.055
Stream size : 1.42 GiB (92%)

Cage Warriors 126

Audio
ID : 2
Format : AAC LC
Format/Info : Advanced Audio
Codec ID : mp4a-40-2
Duration : 2 h 14 min
Bit rate mode : Variable
Bit rate : 132 kb/s
Channel(s) : 2 channels
Channel layout : L R
Sampling rate : 48.0 kHz
Frame rate : 46.875 FPS
Compression mode : Lossy
Stream size : 124 MiB (8%)
Default : Yes
Alternate group : 1

Complete name : Cage.Warriors.126.Prelims.720p.WEB–By DX-TV.com.mp4
Format : MPEG-4
Format profile : Base Media
Codec ID : isom
File size : 887 MiB
Duration : 1 h 15 min
Overall bit rate : 1 641 kb/s

Cage Warriors 126

Video
ID : 1
Format : AVC
Format/Info : Advanced Video
Duration : 1 h 15 min
Bit rate : 1 512 kb/s
Width : 1 280 pixels
Height : 720 pixels
Display aspect ratio : 16:9
Frame rate mode : Constant
Frame rate : 30.000 FPS
Color space : YUV
Chroma subsampling : 4:2:0
Bit depth : 8 bits
Scan type : Progressive
Bits/(Pixel*Frame) : 0.055
Stream size : 813 MiB (92%)

Cage Warriors 126

Audio
ID : 2
Format : AAC LC
Format/Info : Advanced Audio
Codec ID : mp4a-40-2
Duration : 1 h 15 min
Bit rate mode : Constant
Bit rate : 128 kb/s
Channel(s) : 2 channels
Channel layout : L R
Sampling rate : 48.0 kHz
Frame rate : 46.875 FPS (1024 SPF)
Compression mode : Lossy
Stream size : 69.4 MiB (8%)
Default : Yes
Alternate group : 1

Cage Warriors 126

General
Complete name : Cage.Warriors.126.720p.WEB-By DX-TV.com.mp4
Format : MPEG-4
Format profile : Base Media
Codec ID : isom
File size : 1.54 GiB
Duration : 2 h 14 min
Overall bit rate mode : Variable
Overall bit rate : 1 639 kb/s

Video
ID : 1
Format : AVC
Format/Info : Advanced Video
Duration : 2 h 14 min
Bit rate : 1 512 kb/s
Width : 1 280 pixels
Height : 720 pixels
Display aspect ratio : 16:9
Frame rate mode : Constant
Frame rate : 30.000 FPS
Color space : YUV
Chroma subsampling : 4:2:0
Bit depth : 8 bits
Scan type : Progressive
Bits/(Pixel*Frame) : 0.055
Stream size : 1.42 GiB (92%)

Cage Warriors 126

Audio
ID : 2
Format : AAC LC
Format/Info : Advanced Audio
Codec ID : mp4a-40-2
Duration : 2 h 14 min
Bit rate mode : Variable
Bit rate : 132 kb/s
Channel(s) : 2 channels
Channel layout : L R
Sampling rate : 48.0 kHz
Frame rate : 46.875 FPS
Compression mode : Lossy
Stream size : 124 MiB (8%)
Default : Yes
Alternate group : 1

Complete name : Cage.Warriors.126.Prelims.720p.WEB–By DX-TV.com.mp4
Format : MPEG-4
Format profile : Base Media
Codec ID : isom
File size : 887 MiB
Duration : 1 h 15 min
Overall bit rate : 1 641 kb/s

Cage Warriors 126

Video
ID : 1
Format : AVC
Format/Info : Advanced Video
Duration : 1 h 15 min
Bit rate : 1 512 kb/s
Width : 1 280 pixels
Height : 720 pixels
Display aspect ratio : 16:9
Frame rate mode : Constant
Frame rate : 30.000 FPS
Color space : YUV
Chroma subsampling : 4:2:0
Bit depth : 8 bits
Scan type : Progressive
Bits/(Pixel*Frame) : 0.055
Stream size : 813 MiB (92%)

Cage Warriors 126

Audio
ID : 2
Format : AAC LC
Format/Info : Advanced Audio
Codec ID : mp4a-40-2
Duration : 1 h 15 min
Bit rate mode : Constant
Bit rate : 128 kb/s
Channel(s) : 2 channels
Channel layout : L R
Sampling rate : 48.0 kHz
Frame rate : 46.875 FPS (1024 SPF)
Compression mode : Lossy
Stream size : 69.4 MiB (8%)
Default : Yes
Alternate group : 1

Cage Warriors 126

General
Complete name : Cage.Warriors.126.720p.WEB-By DX-TV.com.mp4
Format : MPEG-4
Format profile : Base Media
Codec ID : isom
File size : 1.54 GiB
Duration : 2 h 14 min
Overall bit rate mode : Variable
Overall bit rate : 1 639 kb/s

Video
ID : 1
Format : AVC
Format/Info : Advanced Video
Duration : 2 h 14 min
Bit rate : 1 512 kb/s
Width : 1 280 pixels
Height : 720 pixels
Display aspect ratio : 16:9
Frame rate mode : Constant
Frame rate : 30.000 FPS
Color space : YUV
Chroma subsampling : 4:2:0
Bit depth : 8 bits
Scan type : Progressive
Bits/(Pixel*Frame) : 0.055
Stream size : 1.42 GiB (92%)

Cage Warriors 126

Audio
ID : 2
Format : AAC LC
Format/Info : Advanced Audio
Codec ID : mp4a-40-2
Duration : 2 h 14 min
Bit rate mode : Variable
Bit rate : 132 kb/s
Channel(s) : 2 channels
Channel layout : L R
Sampling rate : 48.0 kHz
Frame rate : 46.875 FPS
Compression mode : Lossy
Stream size : 124 MiB (8%)
Default : Yes
Alternate group : 1

Complete name : Cage.Warriors.126.Prelims.720p.WEB–By DX-TV.com.mp4
Format : MPEG-4
Format profile : Base Media
Codec ID : isom
File size : 887 MiB
Duration : 1 h 15 min
Overall bit rate : 1 641 kb/s

Cage Warriors 126

Video
ID : 1
Format : AVC
Format/Info : Advanced Video
Duration : 1 h 15 min
Bit rate : 1 512 kb/s
Width : 1 280 pixels
Height : 720 pixels
Display aspect ratio : 16:9
Frame rate mode : Constant
Frame rate : 30.000 FPS
Color space : YUV
Chroma subsampling : 4:2:0
Bit depth : 8 bits
Scan type : Progressive
Bits/(Pixel*Frame) : 0.055
Stream size : 813 MiB (92%)

Cage Warriors 126

Audio
ID : 2
Format : AAC LC
Format/Info : Advanced Audio
Codec ID : mp4a-40-2
Duration : 1 h 15 min
Bit rate mode : Constant
Bit rate : 128 kb/s
Channel(s) : 2 channels
Channel layout : L R
Sampling rate : 48.0 kHz
Frame rate : 46.875 FPS (1024 SPF)
Compression mode : Lossy
Stream size : 69.4 MiB (8%)
Default : Yes
Alternate group : 1

Cage Warriors 126

General
Complete name : Cage.Warriors.126.720p.WEB-By DX-TV.com.mp4
Format : MPEG-4
Format profile : Base Media
Codec ID : isom
File size : 1.54 GiB
Duration : 2 h 14 min
Overall bit rate mode : Variable
Overall bit rate : 1 639 kb/s

Video
ID : 1
Format : AVC
Format/Info : Advanced Video
Duration : 2 h 14 min
Bit rate : 1 512 kb/s
Width : 1 280 pixels
Height : 720 pixels
Display aspect ratio : 16:9
Frame rate mode : Constant
Frame rate : 30.000 FPS
Color space : YUV
Chroma subsampling : 4:2:0
Bit depth : 8 bits
Scan type : Progressive
Bits/(Pixel*Frame) : 0.055
Stream size : 1.42 GiB (92%)

Cage Warriors 126

Audio
ID : 2
Format : AAC LC
Format/Info : Advanced Audio
Codec ID : mp4a-40-2
Duration : 2 h 14 min
Bit rate mode : Variable
Bit rate : 132 kb/s
Channel(s) : 2 channels
Channel layout : L R
Sampling rate : 48.0 kHz
Frame rate : 46.875 FPS
Compression mode : Lossy
Stream size : 124 MiB (8%)
Default : Yes
Alternate group : 1

Complete name : Cage.Warriors.126.Prelims.720p.WEB–By DX-TV.com.mp4
Format : MPEG-4
Format profile : Base Media
Codec ID : isom
File size : 887 MiB
Duration : 1 h 15 min
Overall bit rate : 1 641 kb/s

Cage Warriors 126

Video
ID : 1
Format : AVC
Format/Info : Advanced Video
Duration : 1 h 15 min
Bit rate : 1 512 kb/s
Width : 1 280 pixels
Height : 720 pixels
Display aspect ratio : 16:9
Frame rate mode : Constant
Frame rate : 30.000 FPS
Color space : YUV
Chroma subsampling : 4:2:0
Bit depth : 8 bits
Scan type : Progressive
Bits/(Pixel*Frame) : 0.055
Stream size : 813 MiB (92%)

Cage Warriors 126

Audio
ID : 2
Format : AAC LC
Format/Info : Advanced Audio
Codec ID : mp4a-40-2
Duration : 1 h 15 min
Bit rate mode : Constant
Bit rate : 128 kb/s
Channel(s) : 2 channels
Channel layout : L R
Sampling rate : 48.0 kHz
Frame rate : 46.875 FPS (1024 SPF)
Compression mode : Lossy
Stream size : 69.4 MiB (8%)
Default : Yes
Alternate group : 1

Cage Warriors 126

General
Complete name : Cage.Warriors.126.720p.WEB-By DX-TV.com.mp4
Format : MPEG-4
Format profile : Base Media
Codec ID : isom
File size : 1.54 GiB
Duration : 2 h 14 min
Overall bit rate mode : Variable
Overall bit rate : 1 639 kb/s

Video
ID : 1
Format : AVC
Format/Info : Advanced Video
Duration : 2 h 14 min
Bit rate : 1 512 kb/s
Width : 1 280 pixels
Height : 720 pixels
Display aspect ratio : 16:9
Frame rate mode : Constant
Frame rate : 30.000 FPS
Color space : YUV
Chroma subsampling : 4:2:0
Bit depth : 8 bits
Scan type : Progressive
Bits/(Pixel*Frame) : 0.055
Stream size : 1.42 GiB (92%)

Cage Warriors 126

Audio
ID : 2
Format : AAC LC
Format/Info : Advanced Audio
Codec ID : mp4a-40-2
Duration : 2 h 14 min
Bit rate mode : Variable
Bit rate : 132 kb/s
Channel(s) : 2 channels
Channel layout : L R
Sampling rate : 48.0 kHz
Frame rate : 46.875 FPS
Compression mode : Lossy
Stream size : 124 MiB (8%)
Default : Yes
Alternate group : 1

Complete name : Cage.Warriors.126.Prelims.720p.WEB–By DX-TV.com.mp4
Format : MPEG-4
Format profile : Base Media
Codec ID : isom
File size : 887 MiB
Duration : 1 h 15 min
Overall bit rate : 1 641 kb/s

Cage Warriors 126

Video
ID : 1
Format : AVC
Format/Info : Advanced Video
Duration : 1 h 15 min
Bit rate : 1 512 kb/s
Width : 1 280 pixels
Height : 720 pixels
Display aspect ratio : 16:9
Frame rate mode : Constant
Frame rate : 30.000 FPS
Color space : YUV
Chroma subsampling : 4:2:0
Bit depth : 8 bits
Scan type : Progressive
Bits/(Pixel*Frame) : 0.055
Stream size : 813 MiB (92%)

Cage Warriors 126

Audio
ID : 2
Format : AAC LC
Format/Info : Advanced Audio
Codec ID : mp4a-40-2
Duration : 1 h 15 min
Bit rate mode : Constant
Bit rate : 128 kb/s
Channel(s) : 2 channels
Channel layout : L R
Sampling rate : 48.0 kHz
Frame rate : 46.875 FPS (1024 SPF)
Compression mode : Lossy
Stream size : 69.4 MiB (8%)
Default : Yes
Alternate group : 1

Cage Warriors 126

General
Complete name : Cage.Warriors.126.720p.WEB-By DX-TV.com.mp4
Format : MPEG-4
Format profile : Base Media
Codec ID : isom
File size : 1.54 GiB
Duration : 2 h 14 min
Overall bit rate mode : Variable
Overall bit rate : 1 639 kb/s

Video
ID : 1
Format : AVC
Format/Info : Advanced Video
Duration : 2 h 14 min
Bit rate : 1 512 kb/s
Width : 1 280 pixels
Height : 720 pixels
Display aspect ratio : 16:9
Frame rate mode : Constant
Frame rate : 30.000 FPS
Color space : YUV
Chroma subsampling : 4:2:0
Bit depth : 8 bits
Scan type : Progressive
Bits/(Pixel*Frame) : 0.055
Stream size : 1.42 GiB (92%)

Cage Warriors 126

Audio
ID : 2
Format : AAC LC
Format/Info : Advanced Audio
Codec ID : mp4a-40-2
Duration : 2 h 14 min
Bit rate mode : Variable
Bit rate : 132 kb/s
Channel(s) : 2 channels
Channel layout : L R
Sampling rate : 48.0 kHz
Frame rate : 46.875 FPS
Compression mode : Lossy
Stream size : 124 MiB (8%)
Default : Yes
Alternate group : 1

Complete name : Cage.Warriors.126.Prelims.720p.WEB–By DX-TV.com.mp4
Format : MPEG-4
Format profile : Base Media
Codec ID : isom
File size : 887 MiB
Duration : 1 h 15 min
Overall bit rate : 1 641 kb/s

Cage Warriors 126

Video
ID : 1
Format : AVC
Format/Info : Advanced Video
Duration : 1 h 15 min
Bit rate : 1 512 kb/s
Width : 1 280 pixels
Height : 720 pixels
Display aspect ratio : 16:9
Frame rate mode : Constant
Frame rate : 30.000 FPS
Color space : YUV
Chroma subsampling : 4:2:0
Bit depth : 8 bits
Scan type : Progressive
Bits/(Pixel*Frame) : 0.055
Stream size : 813 MiB (92%)

Cage Warriors 126

Audio
ID : 2
Format : AAC LC
Format/Info : Advanced Audio
Codec ID : mp4a-40-2
Duration : 1 h 15 min
Bit rate mode : Constant
Bit rate : 128 kb/s
Channel(s) : 2 channels
Channel layout : L R
Sampling rate : 48.0 kHz
Frame rate : 46.875 FPS (1024 SPF)
Compression mode : Lossy
Stream size : 69.4 MiB (8%)
Default : Yes
Alternate group : 1

Cage Warriors 126

General
Complete name : Cage.Warriors.126.720p.WEB-By DX-TV.com.mp4
Format : MPEG-4
Format profile : Base Media
Codec ID : isom
File size : 1.54 GiB
Duration : 2 h 14 min
Overall bit rate mode : Variable
Overall bit rate : 1 639 kb/s

Video
ID : 1
Format : AVC
Format/Info : Advanced Video
Duration : 2 h 14 min
Bit rate : 1 512 kb/s
Width : 1 280 pixels
Height : 720 pixels
Display aspect ratio : 16:9
Frame rate mode : Constant
Frame rate : 30.000 FPS
Color space : YUV
Chroma subsampling : 4:2:0
Bit depth : 8 bits
Scan type : Progressive
Bits/(Pixel*Frame) : 0.055
Stream size : 1.42 GiB (92%)

Cage Warriors 126

Audio
ID : 2
Format : AAC LC
Format/Info : Advanced Audio
Codec ID : mp4a-40-2
Duration : 2 h 14 min
Bit rate mode : Variable
Bit rate : 132 kb/s
Channel(s) : 2 channels
Channel layout : L R
Sampling rate : 48.0 kHz
Frame rate : 46.875 FPS
Compression mode : Lossy
Stream size : 124 MiB (8%)
Default : Yes
Alternate group : 1

Complete name : Cage.Warriors.126.Prelims.720p.WEB–By DX-TV.com.mp4
Format : MPEG-4
Format profile : Base Media
Codec ID : isom
File size : 887 MiB
Duration : 1 h 15 min
Overall bit rate : 1 641 kb/s

Cage Warriors 126

Video
ID : 1
Format : AVC
Format/Info : Advanced Video
Duration : 1 h 15 min
Bit rate : 1 512 kb/s
Width : 1 280 pixels
Height : 720 pixels
Display aspect ratio : 16:9
Frame rate mode : Constant
Frame rate : 30.000 FPS
Color space : YUV
Chroma subsampling : 4:2:0
Bit depth : 8 bits
Scan type : Progressive
Bits/(Pixel*Frame) : 0.055
Stream size : 813 MiB (92%)

Cage Warriors 126

Audio
ID : 2
Format : AAC LC
Format/Info : Advanced Audio
Codec ID : mp4a-40-2
Duration : 1 h 15 min
Bit rate mode : Constant
Bit rate : 128 kb/s
Channel(s) : 2 channels
Channel layout : L R
Sampling rate : 48.0 kHz
Frame rate : 46.875 FPS (1024 SPF)
Compression mode : Lossy
Stream size : 69.4 MiB (8%)
Default : Yes
Alternate group : 1

Cage Warriors 126

 

[collapse]

 

 

https://dx-tv.com/

Leave a Reply

Your email address will not be published. Required fields are marked *

This site uses Akismet to reduce spam. Learn how your comment data is processed.